Панель пользователя
Регистрация

Воспользуйтесь социальными сетями для входа на https://freerutor.com

vk odnoklassniki facebook mailru yandex google
Популярное
Счетчик
Голосуй за нас
VIP на сайте
Популярное
Товары интернет магазина
загрузка...

Профессионал / Killer Elite (2011) BDRip 1080p | Лицензия

Профессионал / Killer Elite (2011) BDRip 1080p | Лицензия
Участники торрент обмена
Сидов Пиров Скачали
1 0 372
Характеристика
Размер Файлы
7.95 GB
Релиз группа
Поделиться раздачей
Фильмы (720,1080,Blu-Ray)
Наименование: Профессионал
Оригинальное наименование: Killer Elite
Категория: Боевик, триллер, криминал
Произведено: Великобритания, Австралия / International Traders, Omnilab Media
Режиссер постановщик: Гэри МакКендри
В главных ролях: Джейсон Стэйтем, Клайв Оуэн, Роберт Де Ниро, Доминик Пёрселл, Аден Янг, Ивонн Страховски, Бен Мендельсон
Краткое описание: Дэнни Брайс — бывший наемный убийца международного уровня. Но спустя год спокойной жизни он получает сообщение от посредника, из которого узнает, что его бывший напарник взят в заложники арабским шейхом. Теперь Дэнни обязан убить отставных бойцов элитного спецподразделения SAS, чтобы вызволить приятеля из темницы шейха.
  • Видео данные: MPEG-4 AVC, 2333 Кбит/с, 1024x432
    Аудио данные: Русский, английский (AC3, 6 ch, 448 Кбит/с)
    Перевод: Дублированный (Лицензия)
    Субтитры: Русские, английские
    Продолжительность: 01:56:42
  • Профессионал / Killer Elite (2011) BDRip 1080p | Лицензия Профессионал / Killer Elite (2011) BDRip 1080p | Лицензия Профессионал / Killer Elite (2011) BDRip 1080p | Лицензия
  • General
    Unique ID : 187998532462685927910760857157862907453 (0x8D6F3347FAD2CDE69C4B17E773135E3D)
    Complete name : E:Killer Elite (2011)1080p.F-HD.mkv
    Format : Matroska
    Format version : Version 4 / Version 2
    File size : 7.95 GiB
    Duration : 1h 56mn
    Overall bit rate : 9 753 Kbps
    Encoded date : UTC 2013-02-07 06:30:31
    Writing application : mkvmerge v6.0.0 ('Coming Up For Air') built on Jan 20 2013 09:52:00
    Writing library : libebml v1.3.0 + libmatroska v1.4.0

    Video
    ID : 1
    Format : AVC
    Format/Info : Advanced Video Codec
    Format profile : High@L4.1
    Format settings, CABAC : Yes
    Format settings, ReFrames : 5 frames
    Codec ID : V_MPEG4/ISO/AVC
    Duration : 1h 56mn
    Bit rate : 8 856 Kbps
    Width : 1 920 pixels
    Height : 800 pixels
    Display aspect ratio : 2.40:1
    Frame rate : 23.976 fps
    Color space : YUV
    Chroma subsampling : 4:2:0
    Bit depth : 8 bits
    Scan type : Progressive
    Bits/(Pixel*Frame) : 0.240
    Stream size : 7.06 GiB (89%)
    Writing library : x264 core 129 r2230 1cffe9f
    Encoding settings : cabac=1 / ref=5 / deblock=1:-3:-2 / analyse=0x3:0x113 / me=umh / subme=10 / psy=1 / psy_rd=1.00:0.07 / mixed_ref=1 / me_range=42 / chroma_me=1 / trellis=2 / 8x8dct=1 / cqm=0 / deadzone=21,11 / fast_pskip=0 / chroma_qp_offset=-3 / threads=6 / lookahead_threads=1 / sliced_threads=0 / nr=0 / decimate=1 / interlaced=0 / bluray_compat=0 / constrained_intra=0 / bframes=8 / b_pyramid=2 / b_adapt=2 / b_bias=0 / direct=3 / weightb=1 / open_gop=0 / weightp=2 / keyint=240 / keyint_min=23 / scenecut=40 / intra_refresh=0 / rc=2pass / mbtree=0 / bitrate=8856 / ratetol=1.0 / qcomp=0.70 / qpmin=0 / qpmax=69 / qpstep=4 / cplxblur=20.0 / qblur=0.5 / ip_ratio=1.40 / pb_ratio=1.30 / aq=2:0.70
    Language : English
    Default : Yes
    Forced : No
    Color primaries : BT.709-5, BT.1361, IEC 61966-2-4, SMPTE RP177
    Transfer characteristics : BT.709-5, BT.1361
    Matrix coefficients : BT.709-5, BT.1361, IEC 61966-2-4 709, SMPTE RP177

    Audio #1
    ID : 2
    Format : AC-3
    Format/Info : Audio Coding 3
    Mode extension : CM (complete main)
    Codec ID : A_AC3
    Duration : 1h 56mn
    Bit rate mode : Constant
    Bit rate : 448 Kbps
    Channel(s) : 6 channels
    Channel positions : Front: L C R, Side: L R, LFE
    Sampling rate : 48.0 KHz
    Bit depth : 16 bits
    Compression mode : Lossy
    Stream size : 374 MiB (5%)
    Language : Russian
    Default : Yes
    Forced : No

    Audio #2
    ID : 3
    Format : AC-3
    Format/Info : Audio Coding 3
    Mode extension : CM (complete main)
    Codec ID : A_AC3
    Duration : 1h 56mn
    Bit rate mode : Constant
    Bit rate : 448 Kbps
    Channel(s) : 6 channels
    Channel positions : Front: L C R, Side: L R, LFE
    Sampling rate : 48.0 KHz
    Bit depth : 16 bits
    Compression mode : Lossy
    Stream size : 374 MiB (5%)
    Language : English
    Default : No
    Forced : No

    Text #1
    ID : 4
    Format : UTF-8
    Codec ID : S_TEXT/UTF8
    Codec ID/Info : UTF-8 Plain Text
    Language : Russian
    Default : No
    Forced : No

    Text #2
    ID : 5
    Format : UTF-8
    Codec ID : S_TEXT/UTF8
    Codec ID/Info : UTF-8 Plain Text
    Language : English
    Default : No
    Forced : No

    Menu
    00:00:00.000 : en:00:00:00.000
    00:06:11.578 : en:00:06:11.578
    00:12:40.384 : en:00:12:40.384
    00:18:18.222 : en:00:18:18.222
    00:24:33.388 : en:00:24:33.388
    00:30:06.971 : en:00:30:06.971
    00:36:41.324 : en:00:36:41.324
    00:41:01.417 : en:00:41:01.417
    00:46:36.293 : en:00:46:36.293
    00:51:37.052 : en:00:51:37.052
    00:57:32.532 : en:00:57:32.532
    01:02:14.272 : en:01:02:14.272
    01:07:04.895 : en:01:07:04.895
    01:12:39.979 : en:01:12:39.979
    01:20:23.652 : en:01:20:23.652
    01:26:27.473 : en:01:26:27.473
    01:32:30.628 : en:01:32:30.628
    01:41:02.805 : en:01:41:02.805
    01:46:07.277 : en:01:46:07.277
    01:50:26.202 : en:01:50:26.202
10.0 из 10
голосов: 5
/10
/10
grab777 13-12-2015, 15:36
Информация
Посетители, находящиеся в группе Гости, не могут оставлять комментарии к данной публикации.