Панель пользователя
Регистрация

Воспользуйтесь социальными сетями для входа на https://freerutor.com

vk odnoklassniki facebook mailru yandex google
Популярное
Счетчик
Голосуй за нас
VIP на сайте
Популярное
Товары интернет магазина
загрузка...

Петля Нестерова (КГБ против МВД) (1-8 серия из 8) (2015) WEB-DL 720p

Петля Нестерова (КГБ против МВД) (1-8 серия из 8) (2015) WEB-DL 720p
Участники торрент обмена
Сидов Пиров Скачали
1 0 1744
Характеристика
Размер Файлы
9.68 GB
Релиз группа
Поделиться раздачей
Русские сериалы
Наименование: Петля Нестерова (КГБ против МВД)
Категория: Криминал, детектив
Произведено: Россия / Продюсерский Центр «Горад» и «Грин Филмс»
Режиссер постановщик: Илья Казанков
В главных ролях: Кирилл Запорожский, Карина Разумовская, Оксана Акиньшина, Сергей Горобченко, Сергей Бурунов, Сергей Барковский, Василий Бочкарёв
Краткое описание: В начале 1980-х годов в партийной элите СССР обострилась борьба за власть. Простые люди оказываются втянуты в беспощадный конфликт двух ведомств КГБ и МВД, за власть. Однажды вечером к участковому, старшему лейтенанту милиции Кириллу Нестерову, попадает трудный подросток с подозрительным свертком, в котором оказываются раритетные холсты русских художников. Кирилл и не догадывался, что этот эпизод станет только первой ступенькой в череде дальнейших событий, которые поставят под угрозу не только его взгляды на жизнь, но и саму жизнь!
  • Видео данные: MPEG-4 AVC, 1600 Кбит/с, 1280x720
    Аудио данные: Русский (AC3, 2 ch, 192 Кбит/с)
    Перевод: Оригинал
    Продолжительность: 8 x ~ 00:54:00
  • Петля Нестерова (КГБ против МВД) (1-8 серия из 8) (2015) WEB-DL 720p Петля Нестерова (КГБ против МВД) (1-8 серия из 8) (2015) WEB-DL 720p Петля Нестерова (КГБ против МВД) (1-8 серия из 8) (2015) WEB-DL 720p
  • Внимание! Раздача ведётся путём добавления новых выпусков; при каждом добавлении создаётся новый торрент. Чтобы начать докачку нового выпуска, пользователям необходимо сделать следующее:
    (1) остановить скачивание,
    (2) удалить старый торрент у себя из клиента (старые серии удалять не надо),
    (3) скачать новый торрент и запустить его у себя в клиенте вместо старого, при этом указать клиенту путь в старую папку куда и должно происходить скачивание новых выпусков.
    Ваш клиент при этом должен произвести хеширование (проверку) старой папки (если не производит сам - помогите ему сделать это). В результате он будет докачивать только те выпуски, которых у Вас ещё нет. Старые выпуски при этом не удаляются, а продолжают раздаваться!
    Eсли Вы уже удалили старые выпуски, то предотвратить их повторную закачку можно, сняв галочки в соответствующих местах при запуске нового торрента. По возможности, желательно не удалять старые выпуски как можно дольше, чтобы релизёр не только продолжал раздавать старые выпуски, но и смог сконцентрироваться на новых.

    Как скачать отдельный файл
  • Общее
    Уникальный идентификатор : 225091244185362443440584517383489637889 (0xA956FF2A53833C1CB015BA92E4B0CE01)
    Полное имя : F:\Фильмы торренты\Petlya.Nesterova.2015.WEB-DL.(720p).MediaClub\Petlya.Nesterova.(01.seriya).2015.WEB-DL.(720p).MediaClub.mkv
    Формат : Matroska
    Версия формата : Version 2
    Размер файла : 611 Мбайт
    Продолжительность : 53 м.
    Режим общего битрейта : Переменный
    Общий поток : 1582 Кбит/сек
    Название фильма : Petlya.Nesterova.(01.seriya).2015.WEB-DL.(720p) @ release by Nikolspup MediaClub
    Дата кодирования : UTC 2015-12-12 18:12:17
    Программа кодирования : mkvmerge v5.8.0 ('No Sleep / Pillow') built on Sep 2 2012 15:37:04
    Библиотека кодирования : libebml v1.2.3 + libmatroska v1.3.0

    Видео
    Идентификатор : 1
    Формат : AVC
    Формат/Информация : Advanced Video Codec
    Профиль формата : High@L3.1
    Параметр CABAC формата : Да
    Параметр ReFrames формата : 1 кадр
    Параметр GOP формата : M=1, N=60
    Идентификатор кодека : V_MPEG4/ISO/AVC
    Продолжительность : 53 м.
    Вид битрейта : Переменный
    Битрейт : 1359 Кбит/сек
    Максимальный битрейт : 40,0 Мбит/сек
    Ширина : 1280 пикселей
    Высота : 720 пикселей
    Соотношение сторон : 16:9
    Режим частоты кадров : Постоянный
    Частота кадров : 25,000 кадров/сек
    Цветовое пространство : YUV
    Субдискретизация насыщенности : 4:2:0
    Битовая глубина : 8 бит
    Тип развёртки : Прогрессивная
    Бит/(Пиксели*Кадры) : 0.059
    Размер потока : 525 Мбайт (86%)
    Default : Да
    Forced : Да

    Аудио
    Идентификатор : 2
    Формат : AC-3
    Формат/Информация : Audio Coding 3
    Расширение режима : CM (complete main)
    Параметр Endianness формата : Big
    Идентификатор кодека : A_AC3
    Продолжительность : 53 м.
    Вид битрейта : Постоянный
    Битрейт : 192 Кбит/сек
    Каналы : 2 канала
    Расположение каналов : Front: L R
    Частота : 48,0 КГц
    Битовая глубина : 16 бит
    Метод сжатия : С потерями
    Размер потока : 74,1 Мбайт (12%)
    Язык : Russian
    Default : Да
    Forced : Да
7.8 из 10
голосов: 8
Раздачу отредактировал: grab777 - 15-12-2015, 04:53
По причине: (+8 серия!)
grab777 15-12-2015, 04:53

616759 | 13-12-2015, 01:22 | Статус: Оффлайн

Спасибо!!
Информация
Посетители, находящиеся в группе Гости, не могут оставлять комментарии к данной публикации.