Панель пользователя
Регистрация

Воспользуйтесь социальными сетями для входа на https://freerutor.com

vk odnoklassniki facebook mailru yandex google
Популярное
Счетчик
Голосуй за нас
VIP на сайте
Популярное
Товары интернет магазина
загрузка...

Следствие вели - Бифштекс с кровью (эфир от 12.12.2015) HDTV 1080i

Следствие вели - Бифштекс с кровью (эфир от 12.12.2015) HDTV 1080i
Участники торрент обмена
Сидов Пиров Скачали
0 0 35
Характеристика
Размер Файлы
2.18 GB
Релиз группа
Поделиться раздачей
Документальный
Оригинальное наименование: Следствие вели... с Леонидом Каневским
Категория: Документальный, детектив, криминал, расследование
Произведено: Россия / НТВ
Режиссер постановщик: Игорь Ромащенко
Ведущий: Леонид Каневский
Краткое описание: В Москве на территории продуктового рынка находят женскую голову. Убита молодая работница ветеринарной лаборатории. Выясняется, что женщине кто-то угрожал. В это же самое время в столице расследуют загадочный случай. В одном из заведений общепита обнаруживают крупную партию мяса, происхождение которого никто не может объяснить. Ниточку к разгадке этих ЧП удается обнаружить, когда в Саратове происходит громкое преступление — подрыв автомобиля. В результате погибает мясник Сенного рынка, а по «совместительству» — подпольный советский миллионер.
  • Видео данные: MPEG-TS, 7839 Кбит/с, 1920x1080
    Аудио данные: Русский (MP2, 2 ch, 192 Кбит/с)
    Перевод: Оригинал
    Продолжительность: 00:39:47
  • Следствие вели - Бифштекс с кровью (эфир от 12.12.2015) HDTV 1080i Следствие вели - Бифштекс с кровью (эфир от 12.12.2015) HDTV 1080i Следствие вели - Бифштекс с кровью (эфир от 12.12.2015) HDTV 1080i
  • Общее
    Идентификатор : 1 (0x1)
    Полное имя : F:\Фильмы торренты\Sledstvie.veli.(2015.12.12).2015.HDTV.(1080i).MediaClub.ts
    Формат : MPEG-TS
    Размер файла : 2,18 Гбайт
    Продолжительность : 39 м.
    Режим общего битрейта : Переменный
    Общий поток : 7839 Кбит/сек

    Видео
    Идентификатор : 201 (0xC9)
    Идентификатор меню : 2201 (0x899)
    Формат : AVC
    Формат/Информация : Advanced Video Codec
    Профиль формата : Main@L4.0
    Параметр CABAC формата : Да
    Параметр ReFrames формата : 4 кадра
    Идентификатор кодека : 27
    Продолжительность : 39 м.
    Битрейт : 7258 Кбит/сек
    Ширина : 1920 пикселей
    Высота : 1080 пикселей
    Соотношение сторон : 16:9
    Частота кадров : 25,000 кадров/сек
    Стандарт вещания : Component
    Цветовое пространство : YUV
    Субдискретизация насыщенности : 4:2:0
    Битовая глубина : 8 бит
    Тип развёртки : Чересстрочная
    Порядок развёртки : Верхнее поле первое
    Бит/(Пиксели*Кадры) : 0.140
    Размер потока : 2,02 Гбайт (93%)
    Основные цвета : BT.709
    Характеристики трансфера : BT.709
    Коэффициенты матрицы : BT.709

    Аудио
    Идентификатор : 301 (0x12D)
    Идентификатор меню : 2201 (0x899)
    Формат : MPEG Audio
    Версия формата : Version 1
    Профиль формата : Layer 2
    Идентификатор кодека : 3
    Продолжительность : 39 м.
    Вид битрейта : Постоянный
    Битрейт : 192 Кбит/сек
    Каналы : 2 канала
    Частота : 48,0 КГц
    Метод сжатия : С потерями
    Задержка видео : -40 мс.
    Размер потока : 54,7 Мбайт (2%)
    Язык : English
10.0 из 10
голосов: 3
/10
/10
grab777 13-12-2015, 00:31
Информация
Посетители, находящиеся в группе Гости, не могут оставлять комментарии к данной публикации.