Панель пользователя
Регистрация

Воспользуйтесь социальными сетями для входа на https://freerutor.com

vk odnoklassniki facebook mailru yandex google
Популярное
Счетчик
Голосуй за нас
VIP на сайте
Популярное
Товары интернет магазина
загрузка...

Мажестик / The Majestic (2001) BDRip 1080p

Мажестик / The Majestic (2001) BDRip 1080p
Участники торрент обмена
Сидов Пиров Скачали
0 0 5
Характеристика
Размер Файлы
20.44 GB
Релиз группа
Поделиться раздачей
Фильмы (720,1080,Blu-Ray)
Наименование: Мажестик
Оригинальное наименование: The Majestic
Производство: США, Австралия, Castle Rock Entertainment, Village Roadshow Pictures, NPV Entertainment
Жанр: Драма
Режиссер: Фрэнк Дарабонт
Актеры: Джим Керри, Лори Холден, Мартин Ландау, Хэл Холбрук, Джефри ДеМанн, Боб Бэлабан, Брент Бриско, Рон Рифкин, Джерри Блэк, Дэвид Огден Стайерз
Краткое описание: Сценариста из Голливуда Питера Эпплтона обвиняют в причастности к коммунистическому заговору. Теперь ему предстоит выступить свидетелем на специальном заседании комиссии которая расследует антиамериканскую деятельность...
  • Видео: MPEG-4 AVC/H.264, 15 600 kbps, 1920x1080
    Аудио # 1: АС3, 6 ch, 640 kbps, 48 000 Hz - DUB - Blu-Ray CEE
    Аудио # 2: АС3, 2 ch, 192 kbps, 48 000 Hz - MVO - «ВГТРК / ТК "Россия"»
    Аудио # 3: АС3, 2 ch, 192 kbps, 48 000 Hz - DVO - С.Визгунов и Нина
    Аудио # 4: АС3, 2 ch, 224 kbps, 48 000 Hz - AVO - С.Визгунов
    Аудио # 5: АС3, 6 ch, 384 kbps, 48 000 Hz - DVO - «ТакТреба Продакшн» - украинский
    Аудио # 6: DTS, 6 ch, 1509 kbps, 48 000 Hz - английский
    Перевод: Дублированный, профессиональный многоголосый, профессиональный двухголосый, авторский
    Язык субтитров: Русский, украинский, английский
    Вид субтитров: Вшитые, отключаемые
    Продолжительность: 02:32:44
  • Мажестик / The Majestic (2001) BDRip 1080p Мажестик / The Majestic (2001) BDRip 1080p Мажестик / The Majestic (2001) BDRip 1080p
  • Общее
    Уникальный идентификатор : 206134003633491049148033738918347144343 (0x9B13F70B40172891A19A5252A89FFC97)
    Полное имя : E:\The.Majestic.2001.1080p.BluRay.4xRus.Ukr.Eng.mkv
    Формат : Matroska
    Версия формата : Version 4 / Version 2
    Размер файла : 20,4 Гбайт
    Продолжительность : 2 ч. 32 м.
    Общий поток : 19,2 Мбит/сек
    Название фильма : The Majestic (2001) - Release for HDCLUB
    Дата кодирования : UTC 2015-12-06 20:17:28
    Программа кодирования : mkvmerge v6.2.0 ('Promised Land') built on Apr 28 2013 12:22:01
    Библиотека кодирования : libebml v1.3.0 + libmatroska v1.4.0

    Видео
    Идентификатор : 1
    Формат : AVC
    Формат/Информация : Advanced Video Codec
    Профиль формата : High@L4.1
    Параметр CABAC формата : Да
    Параметр ReFrames формата : 4 кадра
    Идентификатор кодека : V_MPEG4/ISO/AVC
    Продолжительность : 2 ч. 32 м.
    Битрейт : 15,6 Мбит/сек
    Ширина : 1920 пикселей
    Высота : 1080 пикселей
    Соотношение сторон : 16:9
    Режим частоты кадров : Постоянный
    Частота кадров : 23,976 (24000/1001) кадра/сек
    Цветовое пространство : YUV
    Субдискретизация насыщенности : 4:2:0
    Битовая глубина : 8 бит
    Тип развёртки : Прогрессивная
    Бит/(Пиксели*Кадры) : 0.315
    Размер потока : 16,7 Гбайт (82%)
    Библиотека кодирования : x264 core 148 r2638kMod 7599210
    Настройки программы : cabac=1 / ref=4 / deblock=1:-3:-3 / analyse=0x3:0x133 / me=umh / subme=9 / psy=1 / fade_compensate=0.00 / psy_rd=1.00:0.00 / mixed_ref=1 / me_range=32 / chroma_me=1 / trellis=2 / 8x8dct=1 / cqm=0 / deadzone=21,11 / fast_pskip=0 / chroma_qp_offset=-2 / threads=6 / lookahead_threads=1 / sliced_threads=0 / nr=0 / decimate=0 / interlaced=0 / bluray_compat=0 / constrained_intra=0 / fgo=0 / bframes=8 / b_pyramid=2 / b_adapt=2 / b_bias=0 / direct=3 / weightb=1 / open_gop=0 / weightp=2 / keyint=250 / keyint_min=23 / scenecut=40 / intra_refresh=0 / rc=crf / mbtree=0 / crf=19.0000 / qcomp=0.60 / qpmin=0 / qpmax=69 / qpstep=4 / ip_ratio=1.40 / pb_ratio=1.30 / aq=3:0.85
    Язык : English
    Default : Да
    Forced : Нет

    Аудио #1
    Идентификатор : 2
    Формат : AC-3
    Формат/Информация : Audio Coding 3
    Расширение режима : CM (complete main)
    Параметр Endianness формата : Big
    Идентификатор кодека : A_AC3
    Продолжительность : 2 ч. 32 м.
    Вид битрейта : Постоянный
    Битрейт : 640 Кбит/сек
    Каналы : 6 каналов
    Расположение каналов : Front: L C R, Side: L R, LFE
    Частота : 48,0 КГц
    Частота кадров : 31,250 кадров/сек (1536 spf)
    Метод сжатия : С потерями
    Размер потока : 699 Мбайт (3%)
    Заголовок : DUB - CEE
    Язык : Russian
    Default : Да
    Forced : Нет

    Аудио #2
    Идентификатор : 3
    Формат : AC-3
    Формат/Информация : Audio Coding 3
    Расширение режима : CM (complete main)
    Параметр Endianness формата : Big
    Идентификатор кодека : A_AC3
    Продолжительность : 2 ч. 32 м.
    Вид битрейта : Постоянный
    Битрейт : 192 Кбит/сек
    Каналы : 2 канала
    Расположение каналов : Front: L R
    Частота : 48,0 КГц
    Частота кадров : 31,250 кадров/сек (1536 spf)
    Метод сжатия : С потерями
    Размер потока : 210 Мбайт (1%)
    Заголовок : MVO - ВГТРК / ТК "Россия"
    Язык : Russian
    Default : Нет
    Forced : Нет

    Аудио #3
    Идентификатор : 4
    Формат : AC-3
    Формат/Информация : Audio Coding 3
    Расширение режима : CM (complete main)
    Параметр Endianness формата : Big
    Идентификатор кодека : A_AC3
    Продолжительность : 2 ч. 32 м.
    Вид битрейта : Постоянный
    Битрейт : 192 Кбит/сек
    Каналы : 2 канала
    Расположение каналов : Front: L R
    Частота : 48,0 КГц
    Частота кадров : 31,250 кадров/сек (1536 spf)
    Метод сжатия : С потерями
    Размер потока : 210 Мбайт (1%)
    Заголовок : DVO - Сергей Визгунов и Нина
    Язык : Russian
    Default : Нет
    Forced : Нет

    Аудио #4
    Идентификатор : 5
    Формат : AC-3
    Формат/Информация : Audio Coding 3
    Расширение режима : CM (complete main)
    Параметр Endianness формата : Big
    Идентификатор кодека : A_AC3
    Продолжительность : 2 ч. 32 м.
    Вид битрейта : Постоянный
    Битрейт : 224 Кбит/сек
    Каналы : 2 канала
    Расположение каналов : Front: L R
    Частота : 48,0 КГц
    Частота кадров : 31,250 кадров/сек (1536 spf)
    Метод сжатия : С потерями
    Размер потока : 245 Мбайт (1%)
    Заголовок : AVO - Сергей Визгунов
    Язык : Russian
    Default : Нет
    Forced : Нет

    Аудио #5
    Идентификатор : 6
    Формат : AC-3
    Формат/Информация : Audio Coding 3
    Расширение режима : CM (complete main)
    Параметр Endianness формата : Big
    Идентификатор кодека : A_AC3
    Продолжительность : 2 ч. 32 м.
    Вид битрейта : Постоянный
    Битрейт : 384 Кбит/сек
    Каналы : 6 каналов
    Расположение каналов : Front: L C R, Side: L R, LFE
    Частота : 48,0 КГц
    Частота кадров : 31,250 кадров/сек (1536 spf)
    Метод сжатия : С потерями
    Размер потока : 420 Мбайт (2%)
    Заголовок : DVO - ТакТреба Продакшн
    Язык : Ukrainian
    Default : Нет
    Forced : Нет

    Аудио #6
    Идентификатор : 7
    Формат : DTS
    Формат/Информация : Digital Theater Systems
    Режим : 16
    Параметр Endianness формата : Big
    Идентификатор кодека : A_DTS
    Продолжительность : 2 ч. 32 м.
    Вид битрейта : Постоянный
    Битрейт : 1509 Кбит/сек
    Каналы : 6 каналов
    Расположение каналов : Front: L C R, Side: L R, LFE
    Частота : 48,0 КГц
    Частота кадров : 93,750 кадра/сек (512 spf)
    Битовая глубина : 24 бит
    Метод сжатия : С потерями
    Размер потока : 1,61 Гбайт (8%)
    Язык : English
    Default : Нет
    Forced : Нет

    Текст #1
    Идентификатор : 8
    Формат : UTF-8
    Идентификатор кодека : S_TEXT/UTF8
    Идентификатор кодека/Информация : UTF-8 Plain Text
    Язык : Russian
    Default : Нет
    Forced : Нет

    Текст #2
    Идентификатор : 9
    Формат : UTF-8
    Идентификатор кодека : S_TEXT/UTF8
    Идентификатор кодека/Информация : UTF-8 Plain Text
    Язык : Ukrainian
    Default : Нет
    Forced : Нет

    Текст #3
    Идентификатор : 10
    Формат : UTF-8
    Идентификатор кодека : S_TEXT/UTF8
    Идентификатор кодека/Информация : UTF-8 Plain Text
    Язык : English
    Default : Нет
    Forced : Нет

    Текст #4
    Идентификатор : 11
    Формат : UTF-8
    Идентификатор кодека : S_TEXT/UTF8
    Идентификатор кодека/Информация : UTF-8 Plain Text
    Заголовок : SDH
    Язык : English
    Default : Нет
    Forced : Нет

    Текст #5
    Идентификатор : 12
    Формат : UTF-8
    Идентификатор кодека : S_TEXT/UTF8
    Идентификатор кодека/Информация : UTF-8 Plain Text
    Заголовок : SDH COLORED
    Язык : English
    Default : Нет
    Forced : Нет

    Текст #6
    Идентификатор : 13
    Формат : UTF-8
    Идентификатор кодека : S_TEXT/UTF8
    Идентификатор кодека/Информация : UTF-8 Plain Text
    Язык : Czech
    Default : Нет
    Forced : Нет

    Текст #7
    Идентификатор : 14
    Формат : UTF-8
    Идентификатор кодека : S_TEXT/UTF8
    Идентификатор кодека/Информация : UTF-8 Plain Text
    Язык : Spanish
    Default : Нет
    Forced : Нет

    Текст #8
    Идентификатор : 15
    Формат : UTF-8
    Идентификатор кодека : S_TEXT/UTF8
    Идентификатор кодека/Информация : UTF-8 Plain Text
    Язык : French
    Default : Нет
    Forced : Нет

    Текст #9
    Идентификатор : 16
    Формат : UTF-8
    Идентификатор кодека : S_TEXT/UTF8
    Идентификатор кодека/Информация : UTF-8 Plain Text
    Язык : German
    Default : Нет
    Forced : Нет

    Текст #10
    Идентификатор : 17
    Формат : UTF-8
    Идентификатор кодека : S_TEXT/UTF8
    Идентификатор кодека/Информация : UTF-8 Plain Text
    Язык : Polish
    Default : Нет
    Forced : Нет

    Текст #11
    Идентификатор : 18
    Формат : UTF-8
    Идентификатор кодека : S_TEXT/UTF8
    Идентификатор кодека/Информация : UTF-8 Plain Text
    Язык : Portuguese
    Default : Нет
    Forced : Нет

    Текст #12
    Идентификатор : 19
    Формат : UTF-8
    Идентификатор кодека : S_TEXT/UTF8
    Идентификатор кодека/Информация : UTF-8 Plain Text
    Язык : Romanian
    Default : Нет
    Forced : Нет

    Текст #13
    Идентификатор : 20
    Формат : UTF-8
    Идентификатор кодека : S_TEXT/UTF8
    Идентификатор кодека/Информация : UTF-8 Plain Text
    Язык : Turkish
    Default : Нет
    Forced : Нет

    Текст #14
    Идентификатор : 21
    Формат : UTF-8
    Идентификатор кодека : S_TEXT/UTF8
    Идентификатор кодека/Информация : UTF-8 Plain Text
    Заголовок : SDH
    Язык : German
    Default : Нет
    Forced : Нет

    Меню
    00:00:00.000 : en:00:00:00.000
    00:05:06.348 : en:00:05:06.348
    00:07:40.543 : en:00:07:40.543
    00:10:38.555 : en:00:10:38.555
    00:13:35.606 : en:00:13:35.606
    00:18:13.092 : en:00:18:13.092
    00:24:09.657 : en:00:24:09.657
    00:28:19.948 : en:00:28:19.948
    00:34:08.338 : en:00:34:08.338
    00:38:00.320 : en:00:38:00.320
    00:41:30.446 : en:00:41:30.446
    00:46:29.245 : en:00:46:29.245
    00:49:46.692 : en:00:49:46.692
    00:54:24.428 : en:00:54:24.428
    00:59:01.538 : en:00:59:01.538
    01:03:57.917 : en:01:03:57.917
    01:07:29.629 : en:01:07:29.629
    01:12:11.118 : en:01:12:11.118
    01:15:30.526 : en:01:15:30.526
    01:18:08.100 : en:01:18:08.100
    01:24:06.959 : en:01:24:06.959
    01:26:23.762 : en:01:26:23.762
    01:30:17.537 : en:01:30:17.537
    01:32:52.859 : en:01:32:52.859
    01:36:12.183 : en:01:36:12.183
    01:42:54.126 : en:01:42:54.126
    01:46:50.654 : en:01:46:50.654
    01:50:11.647 : en:01:50:11.647
    01:53:07.531 : en:01:53:07.531
    01:55:54.197 : en:01:55:54.197
    01:59:42.092 : en:01:59:42.092
    02:03:13.761 : en:02:03:13.761
    02:07:04.992 : en:02:07:04.992
    02:17:10.889 : en:02:17:10.889
    02:20:20.162 : en:02:20:20.162
    02:21:56.925 : en:02:21:56.925
    02:27:34.262 : en:02:27:34.262
10.0 из 10
голосов: 2
/10
/10
Kavasar 12-12-2015, 12:41
Информация
Посетители, находящиеся в группе Гости, не могут оставлять комментарии к данной публикации.