Панель пользователя
Регистрация

Воспользуйтесь социальными сетями для входа на https://freerutor.com

vk odnoklassniki facebook mailru yandex google
Популярное
Счетчик
Голосуй за нас
VIP на сайте
Популярное
Товары интернет магазина
загрузка...

Капитан Фалкао / Capitão Falcão (2015) BDRip-AVC

Капитан Фалкао / Capitão Falcão (2015) BDRip-AVC
Участники торрент обмена
Сидов Пиров Скачали
0 0 72
Характеристика
Размер Файлы
1.59 GB
Релиз группа
Поделиться раздачей
Фильмы (AVC)
Наименование: Капитан Фалкао
Оригинальное наименование: Capitão Falcão
Категория: Комедия
Произведено: Португалия / Individeos
Режиссер постановщик: Джоао Лейтао
В главных ролях: Гонсало Уэддингтон, Дэвид Чан Кордейро, Жозе Пинту, Тьяго Родригез
Краткое описание: Комедия Капитан Фалкао рассказывает историю португальского супергероя, который служит новому правительству страны, пришедшему к власти с помощью военного переворота. Вместе с Путо Партриджем, своим лучшим другом, капитан Фалкао успешно предотвращает все угрозы, возникающие вследствие происков врагов новых властей. Однако когда жители столицы сталкиваются с совершенно новой опасностью, даже прославленный герой оказывается бессилен... Удастся ли Капитану Фалкао справиться с могущественным и безжалостным противником?
  • Видео данные: MPEG-4 AVC, 1488 Кбит/с, 1024x428
    Аудио данные: Русский (AC3, 2 ch, 192 Кбит/с), португальский (AC3, 6 ch, 448 Кбит/с)
    Перевод: Любительский одноголосый [В. Куролесов]
    Продолжительность: 01:46:33
  • Капитан Фалкао / Capitão Falcão (2015) BDRip-AVC Капитан Фалкао / Capitão Falcão (2015) BDRip-AVC Капитан Фалкао / Capitão Falcão (2015) BDRip-AVC
  • Перевод: Любительский (одноголосый) Васька Куролесов по субтитрам Enigma

    General
    Unique ID : 186899815751848417614322153017940830647 (0x8C9B985D6F2DFC18BED77EFB4A26E9B7)
    Complete name : C:Capitan.Falcao.2015.L1.BDRip.AVC.ExKinoRay.mkv
    Format : Matroska
    Format version : Version 4 / Version 2
    File size : 1.59 GiB
    Duration : 1h 46mn
    Overall bit rate : 2 130 Kbps
    Movie name : Capitan Falcao 2015 from ExKinoRay
    Encoded date : UTC 2015-12-11 02:30:42
    Writing application : mkvmerge v6.6.0 ('The Edge Of The In Between') built on Dec 1 2013 17:55:00
    Writing library : libebml v1.3.0 + libmatroska v1.4.1

    Video
    ID : 1
    Format : AVC
    Format/Info : Advanced Video Codec
    Format profile : High@L4.1
    Format settings, CABAC : Yes
    Format settings, ReFrames : 9 frames
    Codec ID : V_MPEG4/ISO/AVC
    Duration : 1h 46mn
    Bit rate : 1 488 Kbps
    Width : 1 024 pixels
    Height : 428 pixels
    Display aspect ratio : 2.40:1
    Frame rate mode : Constant
    Frame rate : 24.000 fps
    Color space : YUV
    Chroma subsampling : 4:2:0
    Bit depth : 8 bits
    Scan type : Progressive
    Bits/(Pixel*Frame) : 0.141
    Stream size : 1.08 GiB (68%)
    Title : Enigma
    Writing library : x264 core 133 r2334 a3ac64b
    Encoding settings : cabac=1 / ref=9 / deblock=1:-1:-1 / analyse=0x3:0x113 / me=umh / subme=10 / psy=1 / psy_rd=1.00:0.10 / mixed_ref=1 / me_range=32 / chroma_me=1 / trellis=2 / 8x8dct=1 / cqm=0 / deadzone=21,11 / fast_pskip=0 / chroma_qp_offset=-3 / threads=12 / lookahead_threads=3 / sliced_threads=0 / nr=0 / decimate=0 / interlaced=0 / bluray_compat=0 / constrained_intra=0 / bframes=10 / b_pyramid=2 / b_adapt=2 / b_bias=0 / direct=3 / weightb=1 / open_gop=0 / weightp=2 / keyint=240 / keyint_min=23 / scenecut=40 / intra_refresh=0 / rc=2pass / mbtree=0 / bitrate=1488 / ratetol=1.0 / qcomp=0.60 / qpmin=0 / qpmax=51 / qpstep=4 / cplxblur=20.0 / qblur=0.5 / ip_ratio=1.40 / pb_ratio=1.30 / aq=1:1.00
    Language : English
    Default : Yes
    Forced : No
    Color primaries : BT.709
    Transfer characteristics : BT.709
    Matrix coefficients : BT.709

    Audio #1
    ID : 2
    Format : AC-3
    Format/Info : Audio Coding 3
    Mode extension : CM (complete main)
    Format settings, Endianness : Big
    Codec ID : A_AC3
    Duration : 1h 46mn
    Bit rate mode : Constant
    Bit rate : 192 Kbps
    Channel(s) : 2 channels
    Channel positions : Front: L R
    Sampling rate : 48.0 KHz
    Bit depth : 16 bits
    Compression mode : Lossy
    Stream size : 146 MiB (9%)
    Title : VO (Kurolesov)
    Language : Russian
    Default : Yes
    Forced : No

    Audio #2
    ID : 3
    Format : AC-3
    Format/Info : Audio Coding 3
    Mode extension : CM (complete main)
    Format settings, Endianness : Big
    Codec ID : A_AC3
    Duration : 1h 46mn
    Bit rate mode : Constant
    Bit rate : 448 Kbps
    Channel(s) : 6 channels
    Channel positions : Front: L C R, Side: L R, LFE
    Sampling rate : 48.0 KHz
    Bit depth : 16 bits
    Compression mode : Lossy
    Stream size : 341 MiB (21%)
    Language : Portuguese
    Default : No
    Forced : No
10.0 из 10
голосов: 2
/10
/10
grab777 11-12-2015, 08:25
Информация
Посетители, находящиеся в группе Гости, не могут оставлять комментарии к данной публикации.