Панель пользователя
Регистрация

Воспользуйтесь социальными сетями для входа на https://freerutor.com

vk odnoklassniki facebook mailru yandex google
Популярное
Счетчик
Голосуй за нас
VIP на сайте
Популярное
Товары интернет магазина
загрузка...

Перевозчик: Наследие / The Transporter Refueled (2015) BDRip-AVC | Лицензия

Перевозчик: Наследие / The Transporter Refueled (2015) BDRip-AVC | Лицензия
Участники торрент обмена
Сидов Пиров Скачали
98 6 83713
Характеристика
Размер Файлы
2.06 GB
Поделиться раздачей
Фильмы (AVC)
Наименование: Перевозчик: Наследие
Оригинальное наименование: The Transporter Refueled
Категория: Боевик, триллер, криминал
Произведено: Франция, Китай, Бельгия / EuropaCorp, Belga Films, Fundamental Films
Режиссер постановщик: Камиль Деламарр
В главных ролях: Эд Скрейн, Рэй Стивенсон, Лоан Шабаноль, Габриэлла Райт, Татьяна Пайкович, Венься Ю, Радивойе Буквич, Ноэми Ленуар, Юрий Колокольников
Краткое описание: Фрэнк Мартин — самый высококвалифицированный перевозчик, которого только можно нанять за деньги. Ставки выше, технологии поднялись на более высокий уровень, но правила те же: никогда не изменять условия сделки, никаких имен и никогда не открывать груз. Когда Фрэнка нанимает хитроумная красотка Анна и ее три очаровательные сообщницы, он быстро выясняет, что его водят за нос. Анна и ее команда похитили его отца, чтобы заставить Фрэнка помочь им разобраться с группой безжалостных торговцев людьми.
  • Видео данные: MPEG-4 AVC, 2185 Кбит/с, 1024x424
    Аудио данные: Русский, английский (AC3, 6 ch, 448 Кбит/с)
    Перевод: Дублированный [Лицензия]
    Субтитры: Английские
    Продолжительность: 01:35:54
  • Перевозчик: Наследие / The Transporter Refueled (2015) BDRip-AVC | Лицензия Перевозчик: Наследие / The Transporter Refueled (2015) BDRip-AVC | Лицензия Перевозчик: Наследие / The Transporter Refueled (2015) BDRip-AVC | Лицензия
  • Общее
    Уникальный идентификатор : 223354216048625436627017557939764120326 (0xA8087510E9AB45F090FC5BD81E0CCB06)
    Полное имя : D:\Torrents\Завершенные\The.Transporter.Refueled.2015.BDRip.AVC.Rus.Eng.mkv
    Формат : Matroska
    Версия формата : Version 4 / Version 2
    Размер файла : 2,06 Гбайт
    Продолжительность : 1 ч. 35 м.
    Общий поток : 3081 Кбит/сек
    Название фильма : The.Transporter.Refueled.2015.BDRip.AVC.Rus.Eng
    Дата кодирования : UTC 2015-12-10 23:05:23
    Программа кодирования : mkvmerge v8.3.0 ('Over the Horizon') 64bit
    Библиотека кодирования : libebml v1.3.1 + libmatroska v1.4.2
    DURATION : 01:35:54.144000000
    NUMBER_OF_FRAMES : 179817
    NUMBER_OF_BYTES : 322232064
    _STATISTICS_WRITING_APP : mkvmerge v8.3.0 ('Over the Horizon') 64bit
    _STATISTICS_WRITING_DATE_UTC : 2015-12-10 23:05:23
    _STATISTICS_TAGS : BPS DURATION NUMBER_OF_FRAMES NUMBER_OF_BYTES

    Видео
    Идентификатор : 1
    Формат : AVC
    Формат/Информация : Advanced Video Codec
    Профиль формата : High@L4.1
    Параметр CABAC формата : Да
    Параметр ReFrames формата : 12 кадров
    Идентификатор кодека : V_MPEG4/ISO/AVC
    Продолжительность : 1 ч. 35 м.
    Битрейт : 2185 Кбит/сек
    Ширина : 1024 пикселя
    Высота : 424 пикселя
    Соотношение сторон : 2,40:1
    Режим частоты кадров : Постоянный
    Частота кадров : 23,976 кадра/сек
    Цветовое пространство : YUV
    Субдискретизация насыщенности : 4:2:0
    Битовая глубина : 8 бит
    Тип развёртки : Прогрессивная
    Бит/(Пиксели*Кадры) : 0.210
    Размер потока : 1,42 Гбайт (69%)
    Заголовок : The.Transporter.Refueled.2015.BDRip.AVC.Rus.Eng
    Библиотека кодирования : x264 core 146 r2538 121396c
    Настройки программы : cabac=1 / ref=12 / deblock=1:-3:-3 / analyse=0x3:0x113 / me=umh / subme=11 / psy=1 / psy_rd=1.00:0.10 / mixed_ref=1 / me_range=32 / chroma_me=1 / trellis=2 / 8x8dct=1 / cqm=0 / deadzone=21,11 / fast_pskip=0 / chroma_qp_offset=-3 / threads=6 / lookahead_threads=2 / sliced_threads=0 / nr=0 / decimate=1 / interlaced=0 / bluray_compat=0 / constrained_intra=0 / bframes=8 / b_pyramid=2 / b_adapt=2 / b_bias=0 / direct=3 / weightb=1 / open_gop=0 / weightp=2 / keyint=240 / keyint_min=23 / scenecut=40 / intra_refresh=0 / rc=2pass / mbtree=0 / bitrate=2185 / ratetol=1.0 / qcomp=0.60 / qpmin=0 / qpmax=69 / qpstep=4 / cplxblur=20.0 / qblur=0.5 / ip_ratio=1.40 / pb_ratio=1.30 / aq=1:1.00
    Язык : English
    Default : Да
    Forced : Нет
    DURATION : 01:35:54.082000000
    NUMBER_OF_FRAMES : 137960
    NUMBER_OF_BYTES : 1570076860
    _STATISTICS_WRITING_APP : mkvmerge v8.3.0 ('Over the Horizon') 64bit
    _STATISTICS_WRITING_DATE_UTC : 2015-12-10 23:05:23
    _STATISTICS_TAGS : BPS DURATION NUMBER_OF_FRAMES NUMBER_OF_BYTES

    Аудио #1
    Идентификатор : 2
    Формат : AC-3
    Формат/Информация : Audio Coding 3
    Расширение режима : CM (complete main)
    Параметр Endianness формата : Big
    Идентификатор кодека : A_AC3
    Продолжительность : 1 ч. 35 м.
    Вид битрейта : Постоянный
    Битрейт : 448 Кбит/сек
    Каналы : 6 каналов
    Расположение каналов : Front: L C R, Side: L R, LFE
    Частота : 48,0 КГц
    Метод сжатия : С потерями
    Размер потока : 307 Мбайт (15%)
    Заголовок : Dub | DD 5.1 @ 448 kbps - Blu Rya RUS
    Язык : Russian
    Default : Да
    Forced : Нет

    Аудио #2
    Идентификатор : 3
    Формат : AC-3
    Формат/Информация : Audio Coding 3
    Расширение режима : CM (complete main)
    Параметр Endianness формата : Big
    Идентификатор кодека : A_AC3
    Продолжительность : 1 ч. 35 м.
    Вид битрейта : Постоянный
    Битрейт : 448 Кбит/сек
    Каналы : 6 каналов
    Расположение каналов : Front: L C R, Side: L R, LFE
    Частота : 48,0 КГц
    Метод сжатия : С потерями
    Размер потока : 307 Мбайт (15%)
    Заголовок : Оригинал
    Язык : English
    Default : Нет
    Forced : Нет

    Текст #1
    Идентификатор : 4
    Формат : UTF-8
    Идентификатор кодека : S_TEXT/UTF8
    Идентификатор кодека/Информация : UTF-8 Plain Text
    Заголовок : Forced
    Язык : English
    Default : Нет
    Forced : Нет

    Текст #2
    Идентификатор : 5
    Формат : UTF-8
    Идентификатор кодека : S_TEXT/UTF8
    Идентификатор кодека/Информация : UTF-8 Plain Text
    Язык : English
    Default : Нет
    Forced : Нет

    Меню
    00:00:00.000 : en:00:00:00.000
    00:03:29.042 : en:00:03:29.042
    00:06:43.278 : en:00:06:43.278
    00:11:22.599 : en:00:11:22.599
    00:15:01.651 : en:00:15:01.651
    00:20:21.512 : en:00:20:21.512
    00:24:49.905 : en:00:24:49.905
    00:27:03.664 : en:00:27:03.664
    00:29:29.643 : en:00:29:29.643
    00:32:56.600 : en:00:32:56.600
    00:35:48.605 : en:00:35:48.605
    00:37:35.879 : en:00:37:35.879
    00:41:53.845 : en:00:41:53.845
    00:48:09.887 : en:00:48:09.887
    00:52:44.536 : en:00:52:44.536
    00:57:42.793 : en:00:57:42.793
    01:01:01.658 : en:01:01:01.658
    01:06:43.541 : en:01:06:43.541
    01:10:50.204 : en:01:10:50.204
    01:13:06.048 : en:01:13:06.048
    01:18:27.244 : en:01:18:27.244
    01:20:18.397 : en:01:20:18.397
    01:21:53.408 : en:01:21:53.408
    01:24:16.885 : en:01:24:16.885
    01:27:00.132 : en:01:27:00.132
    01:28:45.070 : en:01:28:45.070
    01:30:07.110 : en:01:30:07.110
8.5 из 10
голосов: 6
/10
/10
grab777 11-12-2015, 04:02
Информация
Посетители, находящиеся в группе Гости, не могут оставлять комментарии к данной публикации.