Панель пользователя
Регистрация

Воспользуйтесь социальными сетями для входа на https://freerutor.com

vk odnoklassniki facebook mailru yandex google
Популярное
Счетчик
Голосуй за нас
VIP на сайте
Популярное
Товары интернет магазина
загрузка...

Восточный ветер 2 / Ostwind 2 (2015) BDRip-AVC | ViruseProject

Восточный ветер 2 / Ostwind 2 (2015) BDRip-AVC | ViruseProject
Участники торрент обмена
Сидов Пиров Скачали
0 0 1621
Характеристика
Размер Файлы
2.09 GB
Релиз группа
Поделиться раздачей
Фильмы (AVC)
Наименование: Восточный ветер 2
Оригинальное наименование: Ostwind 2
Категория: драма, мелодрама, приключения, семейный
Произведено: Германия
Режиссер постановщик: Катя фон Гарнье
В главных ролях: Ханна Бинке, Марвин Линке, Корнелия Фробёсс, Тило Прюкнер и др.
Краткое описание: Наступили летние каникулы, и Мика возвращается в Кальтенбах в тревоге за своего вороного друга Оствинда. В поместье бабушки тоже не все гладко: Кальтенбах на грани банкротства, и единственный шанс спасти его от разорения — принять участие в очередном турнире. Также Мике придется выяснить, откуда у Оствинда странные шрамы, узнать, кто такая Тридцать Третья, и пойти на сделку с незнакомцем, утверждающим, что он может помочь девушке выиграть турнир.
  • Видео данные: MPEG-4 AVC, 2378 Кбит/с, 1280x528
    Аудио данные: Русский, немецкий (AC3, 2 ch, 192 Кбит/сек)
    Перевод: Профессиональный многоголосый ViruseProject
    Субтитры: Русские
    Продолжительность: 01:47:56
  • Восточный ветер 2 / Ostwind 2 (2015) BDRip-AVC | ViruseProject Восточный ветер 2 / Ostwind 2 (2015) BDRip-AVC | ViruseProject Восточный ветер 2 / Ostwind 2 (2015) BDRip-AVC | ViruseProject
  • Формат : Matroska
    Версия формата : Version 2
    Размер файла : 2,09 Гбайт
    Продолжительность : 1 ч. 48 м.
    Общий поток : 2762 Кбит/сек
    Дата кодирования : UTC 2015-12-09 10:48:34
    Программа кодирования : mkvmerge v7.8.0 ('River Man') 32bit built on Apr 3 2015 12:11:22
    Библиотека кодирования : libebml v1.3.1 + libmatroska v1.4.2

    Видео
    Идентификатор : 1
    Формат : AVC
    Формат/Информация : Advanced Video Codec
    Профиль формата : High@L4.1
    Параметр CABAC формата : Да
    Параметр ReFrames формата : 5 кадров
    Идентификатор кодека : V_MPEG4/ISO/AVC
    Продолжительность : 1 ч. 48 м.
    Битрейт : 2378 Кбит/сек
    Ширина : 1280 пикселей
    Высота : 528 пикселей
    Соотношение сторон : 2,40:1
    Режим частоты кадров : Постоянный
    Частота кадров : 24,000 кадра/сек
    Цветовое пространство : YUV
    Субдискретизация насыщенности : 4:2:0
    Битовая глубина : 8 бит
    Тип развёртки : Прогрессивная
    Бит/(Пиксели*Кадры) : 0.147
    Размер потока : 1,76 Гбайт (84%)
    Библиотека кодирования : x264 core 130 r2273 b3065e6
    Настройки программы : cabac=1 / ref=5 / deblock=1:-1:-1 / analyse=0x3:0x113 / me=umh / subme=7 / psy=1 / psy_rd=1.00:0.20 / mixed_ref=1 / me_range=16 / chroma_me=1 / trellis=2 / 8x8dct=1 / cqm=0 / deadzone=21,11 / fast_pskip=0 / chroma_qp_offset=-3 / threads=12 / lookahead_threads=2 / sliced_threads=0 / nr=0 / decimate=0 / interlaced=0 / bluray_compat=0 / constrained_intra=0 / bframes=3 / b_pyramid=2 / b_adapt=2 / b_bias=0 / direct=3 / weightb=1 / open_gop=0 / weightp=2 / keyint=250 / keyint_min=23 / scenecut=40 / intra_refresh=0 / rc_lookahead=50 / rc=2pass / mbtree=1 / bitrate=2378 / ratetol=1.0 / qcomp=0.60 / qpmin=0 / qpmax=69 / qpstep=4 / cplxblur=20.0 / qblur=0.5 / vbv_maxrate=17500 / vbv_bufsize=14000 / nal_hrd=none / ip_ratio=1.40 / aq=1:1.00
    Default : Да
    Forced : Нет

    Аудио #1
    Идентификатор : 2
    Формат : AC-3
    Формат/Информация : Audio Coding 3
    Расширение режима : CM (complete main)
    Параметр Endianness формата : Big
    Идентификатор кодека : A_AC3
    Продолжительность : 1 ч. 48 м.
    Вид битрейта : Постоянный
    Битрейт : 192 Кбит/сек
    Каналы : 2 канала
    Расположение каналов : Front: L R
    Частота : 48,0 КГц
    Частота кадров : 31,250 кадров/сек (1536 spf)
    Метод сжатия : С потерями
    Размер потока : 149 Мбайт (7%)
    Default : Да
    Forced : Нет

    Аудио #2
    Идентификатор : 3
    Формат : AC-3
    Формат/Информация : Audio Coding 3
    Расширение режима : CM (complete main)
    Параметр Endianness формата : Big
    Идентификатор кодека : A_AC3
    Продолжительность : 1 ч. 48 м.
    Вид битрейта : Постоянный
    Битрейт : 192 Кбит/сек
    Каналы : 2 канала
    Расположение каналов : Front: L R
    Частота : 48,0 КГц
    Частота кадров : 31,250 кадров/сек (1536 spf)
    Метод сжатия : С потерями
    Размер потока : 149 Мбайт (7%)
    Default : Нет
    Forced : Нет

    Текст
    Идентификатор : 4
    Формат : UTF-8
    Идентификатор кодека : S_TEXT/UTF8
    Идентификатор кодека/Информация : UTF-8 Plain Text
    Заголовок : ru
    Язык : Russian
    Default : Нет
    Forced : Нет

5.5 из 10
голосов: 2
/10
/10
OLEG270877 9-12-2015, 13:30
Информация
Посетители, находящиеся в группе Гости, не могут оставлять комментарии к данной публикации.