Панель пользователя
Регистрация

Воспользуйтесь социальными сетями для входа на https://freerutor.com

vk odnoklassniki facebook mailru yandex google
Популярное
Счетчик
Голосуй за нас
VIP на сайте
Популярное
Товары интернет магазина
загрузка...

Робот по имени Чаппи / Chappie (2015) HDRip | Гаврилов

Робот по имени Чаппи / Chappie (2015) HDRip | Гаврилов
Участники торрент обмена
Сидов Пиров Скачали
0 0 145
Характеристика
Размер Файлы
1.46 GB
Релиз группа
Поделиться раздачей
Фильмы (HDRip,WEB-DLRip)
Наименование: Робот по имени Чаппи
Оригинальное наименование: Chappie
Категория: Фантастика, боевик, триллер, криминал
Произведено: США, Мексика / Columbia Pictures, Sony Pictures Entertainment (SPE), Alpha Core
Режиссер постановщик: Нил Бломкамп
В главных ролях: Шарлто Копли, Дев Патель, Ниндзя, Йоланди Фиссер, Хосе Пабло Кантильо, Хью Джекман, Сигурни Уивер, Брэндон Оре, Джонни Селема, Андерсон Купер
Краткое описание: Чаппи — вундеркинд. Как и любой другой ребенок, он попадает под влияние своего окружения, и только его сердце и душа помогут ему найти свой путь. Но есть одна вещь, которая делает Чаппи непохожим на всех остальных: он — первый робот, способный чувствовать и думать.
  • Видео данные: XviD, 1283 Кбит/с, 720x304
    Аудио данные: Русский (AC3, 6 ch, 448 Кбит/с)
    Перевод: Авторский [А. Гаврилов]
    Продолжительность: 02:00:19
  • Робот по имени Чаппи / Chappie (2015) HDRip | Гаврилов Робот по имени Чаппи / Chappie (2015) HDRip | Гаврилов Робот по имени Чаппи / Chappie (2015) HDRip | Гаврилов
  • Формат : AVI
    Формат/Информация : Audio Video Interleave
    Размер файла : 1,46 Гбайт
    Продолжительность : 2 ч. 0 м.
    Общий поток : 1741 Кбит/сек
    Программа кодирования : VirtualDubMod 1.5.10.3 | www.virtualdub-fr.org || (build 2550/release)
    Библиотека кодирования : VirtualDubMod build 2550/release

    Видео
    Идентификатор : 0
    Формат : MPEG-4 Visual
    Профиль формата : Advanced Simple@L5
    Параметр BVOP формата : 1
    Параметр QPel формата : Нет
    Параметр GMC формата : Без точки перехода
    Параметр матрицы формата : Выборочная
    Идентификатор кодека : XVID
    Идентификатор кодека/Подсказка : XviD
    Продолжительность : 2 ч. 0 м.
    Битрейт : 1283 Кбит/сек
    Ширина : 720 пикселей
    Высота : 304 пикселя
    Соотношение сторон : 2,35:1
    Частота кадров : 23,976 кадра/сек
    Цветовое пространство : YUV
    Субдискретизация насыщенности : 4:2:0
    Битовая глубина : 8 бит
    Тип развёртки : Прогрессивная
    Метод сжатия : С потерями
    Бит/(Пиксели*Кадры) : 0.245
    Размер потока : 1,08 Гбайт (74%)
    Библиотека кодирования : XviD 73

    Аудио
    Идентификатор : 1
    Формат : AC-3
    Формат/Информация : Audio Coding 3
    Расширение режима : CM (complete main)
    Параметр Endianness формата : Big
    Идентификатор кодека : 2000
    Продолжительность : 2 ч. 0 м.
    Вид битрейта : Постоянный
    Битрейт : 448 Кбит/сек
    Каналы : 6 каналов
    Расположение каналов : Front: L C R, Side: L R, LFE
    Частота : 48,0 КГц
    Битовая глубина : 16 бит
    Метод сжатия : С потерями
    Размер потока : 386 Мбайт (26%)
    Выравнивание : Разделение по промежуткам
    Продолжительность промежутка : 42 мс. (1,00 видеокадр)
    Время предзагрузки промежутка : 500 мс.
10.0 из 10
голосов: 4
/10
/10
grab777 5-12-2015, 07:19
Информация
Посетители, находящиеся в группе Гости, не могут оставлять комментарии к данной публикации.