Панель пользователя
Регистрация

Воспользуйтесь социальными сетями для входа на https://freerutor.com

vk odnoklassniki facebook mailru yandex google
Популярное
Счетчик
Голосуй за нас
VIP на сайте
Популярное
Товары интернет магазина
загрузка...

Дед Мазаев и Зайцевы (1-4 серии из 4) (2015) HDTV 1080i

Дед Мазаев и Зайцевы (1-4 серии из 4) (2015) HDTV 1080i
Участники торрент обмена
Сидов Пиров Скачали
0 0 186
Характеристика
Размер Файлы
11.40 GB
Поделиться раздачей
Русские сериалы
Наименование: Дед Мазаев и Зайцевы
Категория: Комедия
Произведено: Россия / Пирамида
Режиссер постановщик: Сергей Крутин
В главных ролях: Владимир Меньшов, Ян Цапник, Дарья Мороз, Олег Масленников-Войтов, Татьяна Жукова, Ирина Чипиженко, Александра Назарова, Иван Кокорин, Михаил Тарабукин, Алексей Дмитриев
Краткое описание: В небольшом российском городке живет супружеская чета Зайцевых — Боря и Рита. Им под сорок лет, детей нет, благополучия тоже. Работают они на местной фабрике женского белья. Однажды, коротая свой вечер перед телевизором, Зайцевы видят репортаж о деде Мазаеве, который может любого сделать зажиточным и счастливым. Посмотрев этот сюжет, Рита решает отправить мужа к деду Мазаеву. Живет дед Мазаев в простом крестьянском доме. А опекают его старухи: Катерина, Наталья и баба Настя. Они ухаживают за домом, варят деду манную кашу — единственную пищу, которую он себе позволяет. Дед убежден, что должен повторить подвиг Моисея, водившего свой народ по пустыне и кормивший его сорок лет «манной небесной». Выбрав себе такую необычную диету, Мазаев верит в успех очищения, если не всего русского народа, то уж своей деревни точно. Через некоторое время Борис вместе с дедом возвращается домой. Как изменится жизнь супругов Зайцевых после знакомства с Мазаевым, сбудутся ли их самые сокровенные мечты и кого назовут в честь деда?
  • Видео данные: MPEG-TS, 7900 Кбит/с, 1920x1080
    Аудио данные: MP2, 2 ch, 192 Кбит/с
    Перевод: Оригинал
    Продолжительность: 4 x ~ 00:48:00
  • Дед Мазаев и Зайцевы (1-4 серии из 4) (2015) HDTV 1080i Дед Мазаев и Зайцевы (1-4 серии из 4) (2015) HDTV 1080i Дед Мазаев и Зайцевы (1-4 серии из 4) (2015) HDTV 1080i
  • General
    ID : 1 (0x1)
    Complete name : Ded.Mazaev.i.Zaitsevy.02.2015.HDTV.1080i.ts
    Format : MPEG-TS
    File size : 2.85 GiB
    Duration : 48mn 6s
    Overall bit rate mode : Variable
    Overall bit rate : 8 477 Kbps

    Video
    ID : 901 (0x385)
    Menu ID : 90 (0x5A)
    Format : AVC
    Format/Info : Advanced Video Codec
    Format profile : Main@L4
    Format settings, CABAC : Yes
    Format settings, ReFrames : 2 frames
    Codec ID : 27
    Duration : 48mn 6s
    Bit rate : 7 865 Kbps
    Width : 1 920 pixels
    Height : 1 080 pixels
    Display aspect ratio : 16:9
    Frame rate : 25.000 fps
    Color space : YUV
    Chroma subsampling : 4:2:0
    Bit depth : 8 bits
    Scan type : MBAFF
    Scan order : Top Field First
    Bits/(Pixel*Frame) : 0.152
    Stream size : 2.64 GiB (93%)
    Color range : Limited
    Color primaries : BT.709
    Transfer characteristics : BT.709
    Matrix coefficients : BT.709

    Audio
    ID : 902 (0x386)
    Menu ID : 90 (0x5A)
    Format : MPEG Audio
    Format version : Version 1
    Format profile : Layer 2
    Codec ID : 3
    Duration : 48mn 6s
    Bit rate mode : Constant
    Bit rate : 192 Kbps
    Channel(s) : 2 channels
    Sampling rate : 48.0 KHz
    Compression mode : Lossy
    Stream size : 66.1 MiB (2%)
    Language : Russian
10.0 из 10
голосов: 3
/10
/10
grab777 5-12-2015, 01:10
Информация
Посетители, находящиеся в группе Гости, не могут оставлять комментарии к данной публикации.