Панель пользователя
Регистрация

Воспользуйтесь социальными сетями для входа на https://freerutor.com

vk odnoklassniki facebook mailru yandex google
Популярное
Счетчик
Голосуй за нас
VIP на сайте
Популярное
Товары интернет магазина
загрузка...

Стив Джобс: Человек в машине / Steve Jobs: The Man in the Machine (2015) BDRip 1080 | Sub

Стив Джобс: Человек в машине / Steve Jobs: The Man in the Machine (2015) BDRip 1080 | Sub
Участники торрент обмена
Сидов Пиров Скачали
0 0 211
Характеристика
Размер Файлы
4.35 GB
Поделиться раздачей
Документальный
Наименование: Стив Джобс: Человек в машине
Оригинальное наименование: Steve Jobs: The Man in the Machine
Категория: Документальный
Произведено: США / CNN Films, Jigsaw Productions
Режиссер постановщик: Алекс Гибни
В главных ролях: Стив Джобс
Краткое описание: Фильм рассказывает о частной жизни Стива Джобса.
  • Видео данные: MPEG-4 AVC, 4444 Кбит/с, 1920x1080
    Аудио данные: Английский: (AC3, 6 ch, 384 Кбит/с)
    Перевод: Субтитры
    Субтитры: Русский, английский
    Продолжительность: 02:08:42
  • Стив Джобс: Человек в машине / Steve Jobs: The Man in the Machine (2015) BDRip 1080 | Sub Стив Джобс: Человек в машине / Steve Jobs: The Man in the Machine (2015) BDRip 1080 | Sub Стив Джобс: Человек в машине / Steve Jobs: The Man in the Machine (2015) BDRip 1080 | Sub
  • Общее
    Уникальный идентификатор : 251147715180302603415866966570171324356 (0xBCF14A5F0FA808E994AD37A61B2F57C4)
    Полное имя : E:ЗагрузкиSteve Jobs The Man in the Machine 2015 1080 BDRiP by fsociety.mkv
    Формат : Matroska
    Версия формата : Version 4 / Version 2
    Размер файла : 4,35 Гбайт
    Продолжительность : 2 ч. 8 м.
    Общий поток : 4836 Кбит/сек
    Дата кодирования : UTC 2015-12-01 10:08:04
    Программа кодирования : mkvmerge v8.6.1 ('Flying') 64bit
    Библиотека кодирования : Lavf54.63.104
    DURATION : 02:08:12.643000000
    NUMBER_OF_FRAMES : 3902
    NUMBER_OF_BYTES : 26325578
    _STATISTICS_WRITING_APP : mkvmerge v8.6.1 ('Flying') 64bit
    _STATISTICS_WRITING_DATE_UTC : 2015-12-01 14:05:05
    _STATISTICS_TAGS : BPS DURATION NUMBER_OF_FRAMES NUMBER_OF_BYTES

    Видео
    Идентификатор : 1
    Формат : AVC
    Формат/Информация : Advanced Video Codec
    Профиль формата : Main@L4.0
    Параметр CABAC формата : Да
    Параметр ReFrames формата : 1 кадр
    Идентификатор кодека : V_MPEG4/ISO/AVC
    Продолжительность : 2 ч. 8 м.
    Битрейт : 4444 Кбит/сек
    Ширина : 1920 пикселей
    Высота : 1080 пикселей
    Соотношение сторон : 16:9
    Режим частоты кадров : Постоянный
    Частота кадров : 23,976 кадра/сек
    Цветовое пространство : YUV
    Субдискретизация насыщенности : 4:2:0
    Битовая глубина : 8 бит
    Тип развёртки : Прогрессивная
    Бит/(Пиксели*Кадры) : 0.089
    Размер потока : 3,92 Гбайт (90%)
    Библиотека кодирования : x264 core 129
    Настройки программы : cabac=1 / ref=1 / deblock=1:0:0 / analyse=0x1:0x131 / me=dia / subme=2 / psy=1 / psy_rd=1.00:0.00 / mixed_ref=0 / me_range=16 / chroma_me=1 / trellis=0 / 8x8dct=0 / cqm=0 / deadzone=21,11 / fast_pskip=1 / chroma_qp_offset=0 / threads=4 / lookahead_threads=1 / sliced_threads=0 / nr=0 / decimate=1 / interlaced=0 / bluray_compat=0 / constrained_intra=0 / bframes=0 / weightp=2 / keyint=250 / keyint_min=25 / scenecut=40 / intra_refresh=0 / rc_lookahead=40 / rc=abr / mbtree=1 / bitrate=4444 / ratetol=1.0 / qcomp=0.60 / qpmin=10 / qpmax=51 / qpstep=4 / ip_ratio=1.41 / aq=1:1.00
    Default : Да
    Forced : Нет
    DURATION : 02:08:41.714000000
    NUMBER_OF_FRAMES : 185136
    NUMBER_OF_BYTES : 4243509017
    _STATISTICS_WRITING_APP : mkvmerge v8.6.1 ('Flying') 64bit
    _STATISTICS_WRITING_DATE_UTC : 2015-12-01 14:05:05
    _STATISTICS_TAGS : BPS DURATION NUMBER_OF_FRAMES NUMBER_OF_BYTES

    Аудио
    Идентификатор : 2
    Формат : AC-3
    Формат/Информация : Audio Coding 3
    Расширение режима : CM (complete main)
    Параметр Endianness формата : Big
    Идентификатор кодека : A_AC3
    Продолжительность : 2 ч. 8 м.
    Вид битрейта : Постоянный
    Битрейт : 384 Кбит/сек
    Каналы : 6 каналов
    Расположение каналов : Front: L C R, Side: L R, LFE
    Частота : 44,1 КГц
    Битовая глубина : 16 бит
    Метод сжатия : С потерями
    Размер потока : 353 Мбайт (8%)
    Язык : English
    Default : Да
    Forced : Нет
    DURATION : 02:08:41.692000000
    NUMBER_OF_FRAMES : 221697
    NUMBER_OF_BYTES : 370641188
    _STATISTICS_WRITING_APP : mkvmerge v8.6.1 ('Flying') 64bit
    _STATISTICS_WRITING_DATE_UTC : 2015-12-01 14:05:05
    _STATISTICS_TAGS : BPS DURATION NUMBER_OF_FRAMES NUMBER_OF_BYTES

    Текст #1
    Идентификатор : 3
    Формат : PGS
    Режим смешивания : zlib
    Идентификатор кодека : S_HDMV/PGS
    Идентификатор кодека/Информация : The same subtitle format used on BDs/HD-DVDs
    Язык : Russian
    Default : Нет
    Forced : Нет

    Текст #2
    Идентификатор : 4
    Формат : PGS
    Режим смешивания : zlib
    Идентификатор кодека : S_HDMV/PGS
    Идентификатор кодека/Информация : The same subtitle format used on BDs/HD-DVDs
    Язык : English
    Default : Нет
    Forced : Нет
7.0 из 10
голосов: 3
/10
/10
grab777 4-12-2015, 04:45
Информация
Посетители, находящиеся в группе Гости, не могут оставлять комментарии к данной публикации.