Панель пользователя
Регистрация

Воспользуйтесь социальными сетями для входа на https://freerutor.com

vk odnoklassniki facebook mailru yandex google
Популярное
Счетчик
Голосуй за нас
VIP на сайте
Популярное
Товары интернет магазина
загрузка...

Страж-лев / The Lion Guard: Return of the Roar (2015) WEB-DLRip | Чистый звук

Страж-лев / The Lion Guard: Return of the Roar (2015) WEB-DLRip | Чистый звук
Участники торрент обмена
Сидов Пиров Скачали
183 0 45694
Характеристика
Размер Файлы
698.22 MB
Поделиться раздачей
Мультфильмы
Наименование: Страж-лев
Оригинальное наименование: The Lion Guard: Return Of The Roar
Произведено: США
Категория: мультфильм
Режиссер постановщик: Хауи Паркинс
В главных ролях: Джефф Беннетт, Дусан Браун, Макс Чарльз, Сара Хайланд, Джеймс Эрл Джонс, Эндрю Кисино, Роб Лоу, Хари Пэйтон, Мэдисон Петтис
Краткое описание: Львёнок по имени Кион — второй детёныш Симбы и Налы, младший брат Киары. Пришло время, когда он неожиданно для себя овладел рыком древних — способностью всех вторых детей в королевской семье, благодаря которой они становятся лидерами львиной гвардии. Львиная гвардия — отряд из пяти львов, защищающих земли Прайда и круг жизни: самого свирепого (лидера), самого смелого, самого сильного, самого быстрого и самого зоркого. Но вместо того, чтобы собрать отряд львов, Кион собрал отряд самых разных животных, в чьих способностях и верности был уверен.
  • Видео данные: XviD, 1807 kb/s, 720x304
    Аудио данные: Russian, English: MP3, 192 kb/s (2 ch)
    Перевод: Дублированный [Чистый звук]
    Продолжительность: 00:44:16
    Cубтитры: русские (перевод песен, хардсаб)
  • Страж-лев / The Lion Guard: Return of the Roar (2015) WEB-DLRip | Чистый звук Страж-лев / The Lion Guard: Return of the Roar (2015) WEB-DLRip | Чистый звук Страж-лев / The Lion Guard: Return of the Roar (2015) WEB-DLRip | Чистый звук
8.7 из 10
голосов: 7
/10
/10
Strelok777 5-01-2016, 12:17

Бендер | 5-01-2016, 16:17 | Статус: Оффлайн

Видео данные: XviD, 1807 kb/s, 720x304 ????

Качество: WEB-DLRip
Контейнер: AVI
Видео кодек: XviD
Аудио кодек: AC3, mp3
Видео: 720 x 400 (16:9) / MPEG-4 Visual XviD / 23.976 fps / 1 723 kbps
Аудио 1: 48 KHz / AC3 Dolby Digital, 2/0 (L,R) ch / 192 Kbps - DUB Russian
Аудио 2: 48 KHz / MPEG Audio Layer 3, 2 ch / 192 Kbps - Original English

[hide=Media Info]Имя файла: Straj.lev.2015.D.WEB-DLRip.700MB.Freerutor.avi
Формат файла: .avi (AVI)
Размер файла: 698.22 MB
Длительность: 44mn 16s
Навигация по главам: Нет
Битрейт (все потоки): 2 205 Kbps
...при помощи: VirtualDubMod 1.5.10.2 (build 2540/release)
...с использованием: VirtualDubMod build 2540/release

Название: Straj.lev.2015.D.WEB-DLRip.700MB.Freerutor

Тип потока: Видео
Длительность: 00:44:16
Кодек: MPEG-4 Visual
Кодек/Профиль: Advanced Simple@L5
Кодек/ID: XVID
Размеры изображения: 720 x 400 (16:9)
Частота кадров: 23.976 fps
Размер потока: 546 MiB (78%)
Битрейт: 1 723 Kbps
Библиотека кодирования: XviD 1.2.1 (UTC 2008-12-04)
Цветовое пространство: YUV
Тип развёртки: Progressive
Глубина: 8 bits

Тип потока: Звук #1
Длительность: 00:44:16.485
Кодек: AC-3
Кодек/Описание: Audio Coding 3
Кодек/ID: 2000
Частота дискретизации: 48.0 KHz
Каналов: 2 channels
Битрейт: 192 Kbps
Битрейт/тип: Constant
Размер потока: 60.8 MiB (9%)
Глубина: 16 bits
Метод сжатия: Lossy

Тип потока: Звук #2
Длительность: 00:44:16.485
Кодек: MPEG Audio
Кодек/Профиль: Layer 3
Кодек/ID: 55
Частота дискретизации: 48.0 KHz
Каналов: 2 channels
Битрейт: 192 Kbps
Битрейт/тип: Constant
Размер потока: 60.8 MiB (9%)
Метод сжатия: Lossy[/hide]
Информация
Посетители, находящиеся в группе Гости, не могут оставлять комментарии к данной публикации.