Панель пользователя
Регистрация

Воспользуйтесь социальными сетями для входа на https://freerutor.com

vk odnoklassniki facebook mailru yandex google
Популярное
Счетчик
Голосуй за нас
VIP на сайте
Популярное
Товары интернет магазина
загрузка...

Дороги (2015) WEBRip 720p

Дороги (2015) WEBRip 720p
Участники торрент обмена
Сидов Пиров Скачали
112 1 88519
Характеристика
Размер Файлы
1.02 GB
Поделиться раздачей
Фильмы (720,1080,Blu-Ray)
Наименование: Дороги
Категория: Драма, криминал
Произведено: Россия / Мечта
Режиссер постановщик: Андрей Гаврилов
В главных ролях: Иван Шаповалов, Владимир Заболотский, Константин Авдеев, Сергей Гореликов, Владимир Сычев, Марина Федункив, Максим Коновалов, Артем Карокозян, Артем Калайджян
Краткое описание: Фильм о дорогах, как об автомобильных так и о жизненных, а еще о друзьях, которые друг другу дороги! Руся, Саня и Макс дружат с детства, но силой обстоятельств их дороги расходятся. Через несколько лет они встречаются и решают зарабатывать не честным путем. Почувствовав вкус денег, Руся пристрастился к наркотикам, Саня как и мечтал открыл спорт зал, а Макс увлечен своей девушкой и планирует создать семью. Однако дорога за легкими деньгами их затягивает и приводит совсем не туда куда они мечтали.
  • Видео данные: MPEG-4 AVC, 1347 Кбит/с, 1280x720
    Аудио данные: AAC, 2 ch, 192 Кбит/с
    Перевод: Оригинал
    Продолжительность: 01:34:48
  • Дороги (2015) WEBRip 720p Дороги (2015) WEBRip 720p Дороги (2015) WEBRip 720p
  • Общее
    Полное имя : F:\Раздача HD\Dorogi.WEBRip 720p.mp4
    Формат : MPEG-4
    Профиль формата : Base Media / Version 2
    Идентификатор кодека : mp42
    Размер файла : 1,02 Гбайт
    Продолжительность : 1 ч. 34 м.
    Режим общего битрейта : Переменный
    Общий поток : 1542 Кбит/сек
    Дата кодирования : UTC 2015-11-10 07:32:51
    Дата пометки : UTC 2015-11-10 07:32:51
    gsst : 0
    gstd : 5688261
    gssd : B4A7DDA23
    gshh : r3---sn-4g57kuel.googlevideo.com

    Видео
    Идентификатор : 1
    Формат : AVC
    Формат/Информация : Advanced Video Codec
    Профиль формата : High@L3.1
    Параметр CABAC формата : Да
    Параметр ReFrames формата : 1 кадр
    Параметр GOP формата : M=1, N=60
    Идентификатор кодека : avc1
    Идентификатор кодека/Информация : Advanced Video Coding
    Продолжительность : 1 ч. 34 м.
    Битрейт : 1348 Кбит/сек
    Максимальный битрейт : 6107 Кбит/сек
    Ширина : 1280 пикселей
    Высота : 720 пикселей
    Соотношение сторон : 16:9
    Режим частоты кадров : Постоянный
    Частота кадров : 25,000 кадров/сек
    Цветовое пространство : YUV
    Субдискретизация насыщенности : 4:2:0
    Битовая глубина : 8 бит
    Тип развёртки : Прогрессивная
    Бит/(Пиксели*Кадры) : 0.058
    Размер потока : 914 Мбайт (87%)
    Дата пометки : UTC 2015-11-10 07:33:37

    Аудио
    Идентификатор : 2
    Формат : AAC
    Формат/Информация : Advanced Audio Codec
    Профиль формата : LC
    Идентификатор кодека : 40
    Продолжительность : 1 ч. 34 м.
    Вид битрейта : Переменный
    Битрейт : 192 Кбит/сек
    Максимальный битрейт : 203 Кбит/сек
    Каналы : 2 канала
    Расположение каналов : Front: L R
    Частота : 44,1 КГц
    Метод сжатия : С потерями
    Размер потока : 130 Мбайт (12%)
    Заголовок : IsoMedia File Produced by Google, 5-11-2011
    Дата кодирования : UTC 2015-11-10 07:33:18
    Дата пометки : UTC 2015-11-10 07:33:37
6.0 из 10
голосов: 7
/10
/10
grab777 2-12-2015, 18:44
Информация
Посетители, находящиеся в группе Гости, не могут оставлять комментарии к данной публикации.