Панель пользователя
Регистрация

Воспользуйтесь социальными сетями для входа на https://freerutor.com

vk odnoklassniki facebook mailru yandex google
Популярное
Счетчик
Голосуй за нас
VIP на сайте
Популярное
Товары интернет магазина
загрузка...

Олдбой / Oldeuboi (2003) BDRip 1080p

Олдбой / Oldeuboi (2003) BDRip 1080p
Участники торрент обмена
Сидов Пиров Скачали
1 0 324
Характеристика
Размер Файлы
20.96 GB
Релиз группа
Поделиться раздачей
Фильмы (720,1080,Blu-Ray)
Название: Олдбой
Оригинальное название: Oldeuboi
Жанр: триллер, драма, детектив
Выпущено: Корея Южная / Egg Films, Show East
Режиссер: Пак Чхан Ук
Актеры: Чхве Мин Сик, Ю Чжи Тэ, Кан Хё Чжон, Чи Дэ Хан, О Даль Су, Ким Пён Ок, Ли Сон Син, Юн Чжин Со, Ли Дэ Ён, О Кван Рок
Краткое описание: 1988 год. Обыкновенный и ничем не примечательный бизнесмен по имени О Дэ Су в день трёхлетия своей дочери по пути домой напивается, начинает хулиганить и закономерно попадает в полицейский участок. Из участка его под своё поручительство забирает друг детства по имени Чжу Хван. Пока Чжу Хван звонит домой жене незадачливого пьяницы, О Дэ Су пропадает. Неизвестные похищают его и помещают в камеру частной тюрьмы. Камера состоит из комнаты и санузла, в ней есть телевизор, но нет окон…
  • Видео: MPEG-4 AVC/H.264, 1916x830 (2,35:1), 17 800 kbps, 23.976 fps, 0.468 b/px
    Аудио # 1: АС3, 6 ch, 384 kbps, 48 000 Hz - DUB - «Cinema Prestige»
    Аудио # 2: АС3, 6 ch, 448 kbps, 48 000 Hz - DVO - «Tycoon»
    Аудио # 3: DTS, 6 ch, 1509 kbps, 48 000 Hz - AVO - Ю.Сербин
    Аудио # 4: DTS, 6 ch, 1509 kbps, 48 000 Hz - AVO - С.Визгунов
    Аудио # 5: АС3, 6 ch, 640 kbps, 48 000 Hz - VO - @PD
    Аудио # 6: DTS, 6 ch, 1509 kbps, 48 000 Hz - Original - Korean
    Аудио # 7: АС3, 2 ch, 224 kbps, 48 000 Hz - «Комментарии режиссера» - Korean
    Аудио # 8: АС3, 2 ch, 224 kbps, 48 000 Hz - «Комментарии режиссера и главного оператора» - Korean
    Аудио # 9: АС3, 2 ch, 224 kbps, 48 000 Hz - «Комментарии режиссера и актеров» - Korean
    Перевод: профессиональный (полное дублирование), профессиональный (двухголосый закадровый), авторский (одноголосый закадровый)
    Язык субтитров: русский (Cinema Prestige, Tycoon, evro, Комментарии), английский
    Вид субтитров: вшитые, отключаемые
    Продолжительность: 01:59:56
  • Олдбой / Oldeuboi (2003) BDRip 1080p Олдбой / Oldeuboi (2003) BDRip 1080p Олдбой / Oldeuboi (2003) BDRip 1080p
  • Общее
    Уникальный идентификатор : 177624770478060694400229028513425728156 (0x85A14953A9F9310BA91A31C6B02D229C)
    Полное имя : E:\Oldeuboi.2003.1080p.BluRay.5xRus.Kor-SbR.mkv
    Формат : Matroska
    Версия формата : Version 4 / Version 2
    Размер файла : 21,0 Гбайт
    Продолжительность : 1 ч. 59 м.
    Общий поток : 25,0 Мбит/сек
    Название фильма : Oldeuboi (2003) - Encode by SbR
    Дата кодирования : UTC 2015-11-30 04:17:06
    Программа кодирования : mkvmerge v8.5.2 ('Crosses') 64bit
    Библиотека кодирования : libebml v1.3.3 + libmatroska v1.4.4
    Attachements : cover.jpg / xlog.txt
    DURATION : 01:59:49.307000000
    NUMBER_OF_FRAMES : 1746
    NUMBER_OF_BYTES : 57542
    _STATISTICS_WRITING_APP : mkvmerge v8.5.2 ('Crosses') 64bit
    _STATISTICS_WRITING_DATE_UTC : 2015-11-30 04:17:06
    _STATISTICS_TAGS : BPS DURATION NUMBER_OF_FRAMES NUMBER_OF_BYTES

    Видео
    Идентификатор : 1
    Формат : AVC
    Формат/Информация : Advanced Video Codec
    Профиль формата : High@L4.1
    Параметр CABAC формата : Да
    Параметр ReFrames формата : 5 кадров
    Идентификатор кодека : V_MPEG4/ISO/AVC
    Продолжительность : 1 ч. 59 м.
    Битрейт : 17,8 Мбит/сек
    Ширина : 1916 пикселей
    Высота : 830 пикселей
    Соотношение сторон : 2,35:1
    Режим частоты кадров : Постоянный
    Частота кадров : 23,976 кадра/сек
    Цветовое пространство : YUV
    Субдискретизация насыщенности : 4:2:0
    Битовая глубина : 8 бит
    Тип развёртки : Прогрессивная
    Бит/(Пиксели*Кадры) : 0.468
    Размер потока : 15,0 Гбайт (71%)
    Заголовок : Release for HDCLUB
    Библиотека кодирования : x264 core 148 r2638kMod 7599210
    Настройки программы : cabac=1 / ref=5 / deblock=1:-2:-2 / analyse=0x3:0x133 / me=umh / subme=11 / psy=1 / fade_compensate=0.00 / psy_rd=1.00:0.00 / mixed_ref=1 / me_range=32 / chroma_me=1 / trellis=2 / 8x8dct=1 / cqm=0 / deadzone=21,11 / fast_pskip=1 / chroma_qp_offset=-2 / threads=12 / lookahead_threads=2 / sliced_threads=0 / nr=0 / decimate=1 / interlaced=0 / bluray_compat=0 / constrained_intra=0 / fgo=0 / bframes=8 / b_pyramid=2 / b_adapt=2 / b_bias=0 / direct=1 / weightb=1 / open_gop=0 / weightp=2 / keyint=250 / keyint_min=23 / scenecut=40 / intra_refresh=0 / rc_lookahead=60 / rc=crf / mbtree=0 / crf=17.0000 / qcomp=0.70 / qpmin=0 / qpmax=69 / qpstep=4 / vbv_maxrate=62500 / vbv_bufsize=78125 / crf_max=0.0 / nal_hrd=none / filler=0 / ip_ratio=1.40 / pb_ratio=1.10 / aq=1:0.80
    Язык : Korean
    Default : Да
    Forced : Нет
    Цветовой диапазон : Limited
    Основные цвета : BT.709
    Характеристики трансфера : BT.709
    Коэффициенты матрицы : BT.709

    Аудио #1
    Идентификатор : 2
    Формат : AC-3
    Формат/Информация : Audio Coding 3
    Расширение режима : CM (complete main)
    Параметр Endianness формата : Big
    Идентификатор кодека : A_AC3
    Продолжительность : 1 ч. 59 м.
    Вид битрейта : Постоянный
    Битрейт : 384 Кбит/сек
    Каналы : 6 каналов
    Расположение каналов : Front: L C R, Side: L R, LFE
    Частота : 48,0 КГц
    Метод сжатия : С потерями
    Размер потока : 329 Мбайт (2%)
    Заголовок : Dub, Cinema Prestige
    Язык : Russian
    Default : Да
    Forced : Нет

    Аудио #2
    Идентификатор : 3
    Формат : AC-3
    Формат/Информация : Audio Coding 3
    Расширение режима : CM (complete main)
    Параметр Endianness формата : Big
    Идентификатор кодека : A_AC3
    Продолжительность : 1 ч. 59 м.
    Вид битрейта : Постоянный
    Битрейт : 448 Кбит/сек
    Каналы : 6 каналов
    Расположение каналов : Front: L C R, Side: L R, LFE
    Частота : 48,0 КГц
    Метод сжатия : С потерями
    Размер потока : 384 Мбайт (2%)
    Заголовок : DVO, Tycoon
    Язык : Russian
    Default : Нет
    Forced : Нет

    Аудио #3
    Идентификатор : 4
    Формат : DTS
    Формат/Информация : Digital Theater Systems
    Режим : 16
    Параметр Endianness формата : Big
    Идентификатор кодека : A_DTS
    Продолжительность : 1 ч. 59 м.
    Вид битрейта : Постоянный
    Битрейт : 1509 Кбит/сек
    Каналы : 6 каналов
    Расположение каналов : Front: L C R, Side: L R, LFE
    Частота : 48,0 КГц
    Битовая глубина : 16 бит
    Метод сжатия : С потерями
    Размер потока : 1,26 Гбайт (6%)
    Заголовок : Сербин
    Язык : Russian
    Default : Нет
    Forced : Нет

    Аудио #4
    Идентификатор : 5
    Формат : DTS
    Формат/Информация : Digital Theater Systems
    Режим : 16
    Параметр Endianness формата : Big
    Идентификатор кодека : A_DTS
    Продолжительность : 1 ч. 59 м.
    Вид битрейта : Постоянный
    Битрейт : 1509 Кбит/сек
    Каналы : 6 каналов
    Расположение каналов : Front: L C R, Side: L R, LFE
    Частота : 48,0 КГц
    Битовая глубина : 16 бит
    Метод сжатия : С потерями
    Размер потока : 1,26 Гбайт (6%)
    Заголовок : Визгунов
    Язык : Russian
    Default : Нет
    Forced : Нет

    Аудио #5
    Идентификатор : 6
    Формат : AC-3
    Формат/Информация : Audio Coding 3
    Расширение режима : CM (complete main)
    Параметр Endianness формата : Big
    Идентификатор кодека : A_AC3
    Продолжительность : 1 ч. 59 м.
    Вид битрейта : Постоянный
    Битрейт : 640 Кбит/сек
    Каналы : 6 каналов
    Расположение каналов : Front: L C R, Side: L R, LFE
    Частота : 48,0 КГц
    Метод сжатия : С потерями
    Размер потока : 549 Мбайт (3%)
    Заголовок : @PD
    Язык : Russian
    Default : Нет
    Forced : Нет

    Аудио #6
    Идентификатор : 7
    Формат : DTS
    Формат/Информация : Digital Theater Systems
    Режим : 16
    Параметр Endianness формата : Big
    Идентификатор кодека : A_DTS
    Продолжительность : 1 ч. 59 м.
    Вид битрейта : Постоянный
    Битрейт : 1509 Кбит/сек
    Каналы : 6 каналов
    Расположение каналов : Front: L C R, Side: L R, LFE
    Частота : 48,0 КГц
    Битовая глубина : 24 бит
    Метод сжатия : С потерями
    Размер потока : 1,26 Гбайт (6%)
    Язык : Korean
    Default : Нет
    Forced : Нет

    Аудио #7
    Идентификатор : 8
    Формат : AC-3
    Формат/Информация : Audio Coding 3
    Расширение режима : CM (complete main)
    Параметр Endianness формата : Big
    Идентификатор кодека : A_AC3
    Продолжительность : 1 ч. 59 м.
    Вид битрейта : Постоянный
    Битрейт : 224 Кбит/сек
    Каналы : 2 канала
    Расположение каналов : Front: L R
    Частота : 48,0 КГц
    Метод сжатия : С потерями
    Размер потока : 192 Мбайт (1%)
    Заголовок : Комментарии режиссера
    Язык : Korean
    Default : Нет
    Forced : Нет

    Аудио #8
    Идентификатор : 9
    Формат : AC-3
    Формат/Информация : Audio Coding 3
    Расширение режима : CM (complete main)
    Параметр Endianness формата : Big
    Идентификатор кодека : A_AC3
    Продолжительность : 1 ч. 59 м.
    Вид битрейта : Постоянный
    Битрейт : 224 Кбит/сек
    Каналы : 2 канала
    Расположение каналов : Front: L R
    Частота : 48,0 КГц
    Метод сжатия : С потерями
    Размер потока : 192 Мбайт (1%)
    Заголовок : Комментарии режиссера и главного оператора
    Язык : Korean
    Default : Нет
    Forced : Нет

    Аудио #9
    Идентификатор : 10
    Формат : AC-3
    Формат/Информация : Audio Coding 3
    Расширение режима : CM (complete main)
    Параметр Endianness формата : Big
    Идентификатор кодека : A_AC3
    Продолжительность : 1 ч. 59 м.
    Вид битрейта : Постоянный
    Битрейт : 224 Кбит/сек
    Каналы : 2 канала
    Расположение каналов : Front: L R
    Частота : 48,0 КГц
    Метод сжатия : С потерями
    Размер потока : 192 Мбайт (1%)
    Заголовок : Комментарии режиссера и актеров
    Язык : Korean
    Default : Нет
    Forced : Нет

    Текст #1
    Идентификатор : 11
    Формат : UTF-8
    Идентификатор кодека : S_TEXT/UTF8
    Идентификатор кодека/Информация : UTF-8 Plain Text
    Заголовок : Cinema Prestige
    Язык : Russian
    Default : Нет
    Forced : Нет

    Текст #2
    Идентификатор : 12
    Формат : UTF-8
    Идентификатор кодека : S_TEXT/UTF8
    Идентификатор кодека/Информация : UTF-8 Plain Text
    Заголовок : Tycoon
    Язык : Russian
    Default : Нет
    Forced : Нет

    Текст #3
    Идентификатор : 13
    Формат : UTF-8
    Идентификатор кодека : S_TEXT/UTF8
    Идентификатор кодека/Информация : UTF-8 Plain Text
    Заголовок : evro
    Язык : Russian
    Default : Нет
    Forced : Нет

    Текст #4
    Идентификатор : 14
    Формат : UTF-8
    Идентификатор кодека : S_TEXT/UTF8
    Идентификатор кодека/Информация : UTF-8 Plain Text
    Язык : English
    Default : Нет
    Forced : Нет

    Текст #5
    Идентификатор : 15
    Формат : UTF-8
    Идентификатор кодека : S_TEXT/UTF8
    Идентификатор кодека/Информация : UTF-8 Plain Text
    Заголовок : Комментарии режиссера
    Язык : Russian
    Default : Нет
    Forced : Нет

    Текст #6
    Идентификатор : 16
    Формат : UTF-8
    Идентификатор кодека : S_TEXT/UTF8
    Идентификатор кодека/Информация : UTF-8 Plain Text
    Заголовок : Комментарии режиссера и главного оператора
    Язык : Russian
    Default : Нет
    Forced : Нет

    Текст #7
    Идентификатор : 17
    Формат : UTF-8
    Идентификатор кодека : S_TEXT/UTF8
    Идентификатор кодека/Информация : UTF-8 Plain Text
    Заголовок : Комментарии режиссера и актеров
    Язык : Russian
    Default : Нет
    Forced : Нет

    Текст #8
    Идентификатор : 18
    Формат : UTF-8
    Идентификатор кодека : S_TEXT/UTF8
    Идентификатор кодека/Информация : UTF-8 Plain Text
    Заголовок : Комментарии режиссера
    Язык : English
    Default : Нет
    Forced : Нет

    Текст #9
    Идентификатор : 19
    Формат : UTF-8
    Идентификатор кодека : S_TEXT/UTF8
    Идентификатор кодека/Информация : UTF-8 Plain Text
    Заголовок : Комментарии режиссера и главного оператора
    Язык : English
    Default : Нет
    Forced : Нет

    Текст #10
    Идентификатор : 20
    Формат : UTF-8
    Идентификатор кодека : S_TEXT/UTF8
    Идентификатор кодека/Информация : UTF-8 Plain Text
    Заголовок : Комментарии режиссера и актеров
    Язык : English
    Default : Нет
    Forced : Нет

    Меню
    00:00:00.000 : en:Kidnapped
    00:05:58.941 : en:Private Cell
    00:12:06.142 : en:Soon I'll Be Free
    00:17:36.847 : en:In a Different Place
    00:28:40.802 : en:Mido
    00:33:57.410 : en:The Right Taste
    00:42:37.054 : en:One Versus Many
    00:47:36.603 : en:Evergreen
    00:52:45.537 : en:Only 5 Days
    01:00:59.781 : en:The Sign
    01:12:36.685 : en:Soo-Ah
    01:19:26.803 : en:Look Through the Window
    01:29:10.303 : en:Bitter Truth
    01:40:00.452 : en:Forgive Me
    01:47:06.378 : en:Falling
    01:57:36.215 : en:Closing Credits
10.0 из 10
голосов: 1
/10
/10
Kavasar 1-12-2015, 19:59
Информация
Посетители, находящиеся в группе Гости, не могут оставлять комментарии к данной публикации.