Панель пользователя
Регистрация

Воспользуйтесь социальными сетями для входа на https://freerutor.com

vk odnoklassniki facebook mailru yandex google
Популярное
Счетчик
Голосуй за нас
VIP на сайте
Популярное
Товары интернет магазина
загрузка...

Человек-муравей / Ant-Man (2015) BDRip 720p | 60 fps | Лицензия

Человек-муравей / Ant-Man (2015) BDRip 720p | 60 fps | Лицензия
Участники торрент обмена
Сидов Пиров Скачали
9 1 1515
Характеристика
Размер Файлы
4.89 GB
Релиз группа
Поделиться раздачей
Фильмы (720,1080,Blu-Ray)
Наименование: Человек-муравей
Оригинальное наименование: Ant-Man
Категория: Фантастика, боевик, комедия, приключения
Произведено: США / Marvel Studios Inc.
Режиссер постановщик: Пейтон Рид
В главных ролях: Пол Радд, Майкл Дуглас, Эванджелин Лилли, Кори Столл, Майкл Пенья, Бобби Каннавале, Ти-Ай, Давид Дастмалчян, Эбби Райдер Фортсон, Джуди Грир
Краткое описание: Вооружившись удивительной способностью уменьшаться в размере, но обладать при этом большой силой, мошенник Скотт Лэнг должен стать героем и помочь своему наставнику, доктору Хэнку Пиму, сохранить в тайне существование костюма Человека-муравья от угроз нового поколения.
  • Видео данные: MPEG-4 AVC, 4581 Кбит/с, 1280x688
    Аудио данные: Русский, английский (AC3, 6 ch, 640 Кбит/с)
    Перевод: Дублированный [Лицензия]
    Субтитры: Русские, английские
    Продолжительность: 01:57:06
  • Человек-муравей / Ant-Man (2015) BDRip 720p | 60 fps | Лицензия Человек-муравей / Ant-Man (2015) BDRip 720p | 60 fps | Лицензия Человек-муравей / Ant-Man (2015) BDRip 720p | 60 fps | Лицензия
  • Format : Matroska
    Format version : Version 2
    File size : 4.89 GiB
    Duration : 1h 57mn
    Overall bit rate : 5 980 Kbps
    Movie name : Человек-муравей.(2015).BDRip.720p.[envy].[60fps]
    Encoded date : UTC 2015-11-30 06:46:25
    Writing application : mkvmerge v5.8.0 ('No Sleep / Pillow') built on Sep 2 2012 15:37:04
    Writing library : libebml v1.2.3 + libmatroska v1.3.0

    Video
    ID : 1
    Format : AVC
    Format/Info : Advanced Video Codec
    Format profile : High@L4.1
    Format settings, CABAC : Yes
    Format settings, ReFrames : 9 frames
    Codec ID : V_MPEG4/ISO/AVC
    Duration : 1h 57mn
    Bit rate : 4 581 Kbps
    Width : 1 280 pixels
    Height : 688 pixels
    Display aspect ratio : 1.85:1
    Frame rate mode : Constant
    Frame rate : 59.880 fps
    Original frame rate : 59.940 fps
    Color space : YUV
    Chroma subsampling : 4:2:0
    Bit depth : 8 bits
    Scan type : Progressive
    Bits/(Pixel*Frame) : 0.087
    Stream size : 3.75 GiB (77%)
    Title : Человек-муравей.(2015).BDRip.720p.[envy].[60fps]
    Writing library : x264 core 146 r2538 121396c
    Encoding settings : cabac=1 / ref=9 / deblock=1:0:0 / analyse=0x3:0x113 / me=umh / subme=10 / psy=1 / psy_rd=1.00:0.00 / mixed_ref=1 / me_range=24 / chroma_me=1 / trellis=2 / 8x8dct=1 / cqm=0 / deadzone=21,11 / fast_pskip=0 / chroma_qp_offset=-2 / threads=12 / lookahead_threads=1 / sliced_threads=0 / nr=0 / decimate=1 / interlaced=0 / bluray_compat=0 / constrained_intra=0 / bframes=5 / b_pyramid=2 / b_adapt=2 / b_bias=0 / direct=3 / weightb=1 / open_gop=0 / weightp=2 / keyint=250 / keyint_min=25 / scenecut=40 / intra_refresh=0 / rc_lookahead=40 / rc=crf / mbtree=0 / crf=18.5 / qcomp=0.60 / qpmin=0 / qpmax=69 / qpstep=4 / vbv_maxrate=14000 / vbv_bufsize=14000 / crf_max=0.0 / nal_hrd=none / filler=0 / ip_ratio=1.40 / pb_ratio=1.30 / aq=3:1.00
    Language : English
    Default : Yes
    Forced : No

    Audio #1
    ID : 2
    Format : AC-3
    Format/Info : Audio Coding 3
    Mode extension : CM (complete main)
    Format settings, Endianness : Big
    Codec ID : A_AC3
    Duration : 1h 57mn
    Bit rate mode : Constant
    Bit rate : 640 Kbps
    Channel(s) : 6 channels
    Channel positions : Front: L C R, Side: L R, LFE
    Sampling rate : 48.0 KHz
    Compression mode : Lossy
    Stream size : 536 MiB (11%)
    Title : Dub
    Language : Russian
    Default : Yes
    Forced : No

    Audio #2
    ID : 3
    Format : AC-3
    Format/Info : Audio Coding 3
    Mode extension : CM (complete main)
    Format settings, Endianness : Big
    Codec ID : A_AC3
    Duration : 1h 57mn
    Bit rate mode : Constant
    Bit rate : 640 Kbps
    Channel(s) : 6 channels
    Channel positions : Front: L C R, Side: L R, LFE
    Sampling rate : 48.0 KHz
    Compression mode : Lossy
    Stream size : 536 MiB (11%)
    Title : Eng
    Language : English
    Default : No
    Forced : No

    Text #1
    ID : 4
    Format : UTF-8
    Codec ID : S_TEXT/UTF8
    Codec ID/Info : UTF-8 Plain Text
    Title : Rus forced
    Language : Russian
    Default : Yes
    Forced : Yes

    Text #2
    ID : 5
    Format : UTF-8
    Codec ID : S_TEXT/UTF8
    Codec ID/Info : UTF-8 Plain Text
    Title : Rus Full
    Language : Russian
    Default : No
    Forced : No

    Text #3
    ID : 6
    Format : UTF-8
    Codec ID : S_TEXT/UTF8
    Codec ID/Info : UTF-8 Plain Text
    Title : Eng Full
    Language : English
    Default : No
    Forced : No

    Menu
    00:00:00.000 : :Chapter 01
    00:02:08.837 : :Chapter 02
    00:08:40.186 : :Chapter 03
    00:15:24.840 : :Chapter 04
    00:19:59.740 : :Chapter 05
    00:27:50.210 : :Chapter 06
    00:33:07.235 : :Chapter 07
    00:38:53.956 : :Chapter 08
    00:44:36.465 : :Chapter 09
    00:49:22.459 : :Chapter 10
    00:57:44.252 : :Chapter 11
    01:00:48.811 : :Chapter 12
    01:06:31.529 : :Chapter 13
    01:23:21.287 : :Chapter 14
    01:34:20.529 : :Chapter 15
    01:47:34.239 : :Chapter 16
    01:57:06.394 : :Chapter 17
8.5 из 10
голосов: 6
/10
/10
grab777 1-12-2015, 16:44
Информация
Посетители, находящиеся в группе Гости, не могут оставлять комментарии к данной публикации.