Панель пользователя
Регистрация

Воспользуйтесь социальными сетями для входа на https://freerutor.com

vk odnoklassniki facebook mailru yandex google
Популярное
Счетчик
Голосуй за нас
VIP на сайте
Популярное
Товары интернет магазина
загрузка...

Приключения Бэйли: Ночь в Каутауне / Adventures of Bailey: A Night in Cowtown (2013) HDTVRip 1080p

Приключения Бэйли: Ночь в Каутауне / Adventures of Bailey: A Night in Cowtown (2013) HDTVRip 1080p
Участники торрент обмена
Сидов Пиров Скачали
0 0 32
Характеристика
Размер Файлы
3.06 GB
Поделиться раздачей
Фильмы (720,1080,Blu-Ray)
Наименование: Приключения Бэйли: Ночь в Каутауне
Оригинальное наименование: Adventures of Bailey: A Night in Cowtown
Категория: Комедия, семейный
Произведено: США / Hungry Bear Productions
Режиссер постановщик: Стив Франке
В главных ролях: Фрэнк Мосли, Марк Хэнсон, Трей Бампасс, Кристин Галиэн, Макс Хартман, Рик Шью, Мэйсон Дай, Кензи Пэллоун
Краткое описание: Бэйли снова возвращается к нам! Очаровательный пес поселился в новом доме и у него есть поклонница — собака-соседка. Когда в опасность попадает ее брат Пит, Бэйли отправляется в опасное приключение в город Каутаун. Вместе с друзьями, он сталкивается с множеством препятствий. Можно ли спасти Пита и завоевать любовь своей возлюбленной?
  • Видео данные: MPEG-4 AVC, 5000 Кбит/с, 1920x1080
    Аудио данные: AC3, 6 ch, 448 Кбит/с
    Перевод: Профессиональный многоголосый
    Продолжительность: 01:21:16
  • Приключения Бэйли: Ночь в Каутауне / Adventures of Bailey: A Night in Cowtown (2013) HDTVRip 1080p Приключения Бэйли: Ночь в Каутауне / Adventures of Bailey: A Night in Cowtown (2013) HDTVRip 1080p Приключения Бэйли: Ночь в Каутауне / Adventures of Bailey: A Night in Cowtown (2013) HDTVRip 1080p
  • Общее
    Уникальный идентификатор : 186338641453714525669151154502558020204 (0x8C2F8455FF4E939E8EADCB65EF9FF26C)
    Полное имя : A.Night.in.Cowtown.2013.HDTVRip.1080p.mkv
    Формат : Matroska
    Версия формата : Version 4 / Version 2
    Размер файла : 3,06 Гбайт
    Продолжительность : 1 ч. 21 м.
    Общий поток : 5387 Кбит/сек
    Дата кодирования : UTC 2015-10-12 12:10:33
    Программа кодирования : mkvmerge v7.9.0 ('Birds') 64bit
    Библиотека кодирования : Lavf57.3.100

    Видео
    Идентификатор : 1
    Формат : AVC
    Формат/Информация : Advanced Video Codec
    Профиль формата : High@L4.1
    Параметр CABAC формата : Да
    Параметр ReFrames формата : 4 кадра
    Идентификатор кодека : V_MPEG4/ISO/AVC
    Продолжительность : 1 ч. 21 м.
    Битрейт : 5000 Кбит/сек
    Ширина : 1920 пикселей
    Высота : 1080 пикселей
    Соотношение сторон : 16:9
    Режим частоты кадров : Постоянный
    Частота кадров : 25,000 кадров/сек
    Цветовое пространство : YUV
    Субдискретизация насыщенности : 4:2:0
    Битовая глубина : 8 бит
    Тип развёртки : Прогрессивная
    Бит/(Пиксели*Кадры) : 0.096
    Размер потока : 2,74 Гбайт (90%)
    Библиотека кодирования : x264 core 148 r2538
    Настройки программы : cabac=1 / ref=4 / deblock=1:0:0 / analyse=0x3:0x133 / me=umh / subme=8 / psy=1 / psy_rd=1.00:0.00 / mixed_ref=0 / me_range=16 / chroma_me=1 / trellis=1 / 8x8dct=1 / cqm=0 / deadzone=21,11 / fast_pskip=1 / chroma_qp_offset=-2 / threads=6 / lookahead_threads=1 / sliced_threads=0 / nr=0 / decimate=1 / interlaced=0 / bluray_compat=0 / constrained_intra=0 / bframes=3 / b_pyramid=0 / b_adapt=2 / b_bias=0 / direct=3 / weightb=1 / open_gop=0 / weightp=2 / keyint=250 / keyint_min=25 / scenecut=40 / intra_refresh=0 / rc_lookahead=50 / rc=2pass / mbtree=1 / bitrate=5000 / ratetol=1.0 / qcomp=0.60 / qpmin=10 / qpmax=69 / qpstep=4 / cplxblur=20.0 / qblur=0.5 / vbv_maxrate=5000 / vbv_bufsize=24000 / nal_hrd=none / filler=0 / ip_ratio=1.40 / aq=3:1.00
    Язык : English
    Default : Да
    Forced : Нет
    DURATION : 01:21:18.880000000

    Аудио
    Идентификатор : 2
    Формат : AC-3
    Формат/Информация : Audio Coding 3
    Расширение режима : CM (complete main)
    Параметр Endianness формата : Big
    Идентификатор кодека : A_AC3
    Продолжительность : 1 ч. 21 м.
    Вид битрейта : Постоянный
    Битрейт : 448 Кбит/сек
    Каналы : 6 каналов
    Расположение каналов : Front: L C R, Side: L R, LFE
    Частота : 48,0 КГц
    Метод сжатия : С потерями
    Задержка видео : -2 с. 360 мс.
    Размер потока : 260 Мбайт (8%)
    Язык : Russian
    Default : Да
    Forced : Нет
    DURATION : 01:21:18.048000000
10.0 из 10
голосов: 1
/10
/10
grab777 1-12-2015, 14:17
Информация
Посетители, находящиеся в группе Гости, не могут оставлять комментарии к данной публикации.