Панель пользователя
Регистрация

Воспользуйтесь социальными сетями для входа на https://freerutor.com

vk odnoklassniki facebook mailru yandex google
Популярное
Счетчик
Голосуй за нас
VIP на сайте
Популярное
Товары интернет магазина
загрузка...

Halo: Падение Предела / Halo: The Fall of Reach (2015) BDRip-AVC

Halo: Падение Предела / Halo: The Fall of Reach (2015) BDRip-AVC
Участники торрент обмена
Сидов Пиров Скачали
1 0 387
Характеристика
Размер Файлы
1.38 GB
Поделиться раздачей
Мультфильмы
Наименование: Halo: Падение Предела
Оригинальное наименование: Halo: The Fall of Reach
Категория: Фантастика, анимация, экшен
Произведено: США / Microsoft Studios
Режиссер постановщик: Йен Кирби
В главных ролях: Энтони Дель Рио, Джен Тейлор, Стив Даунс, Мишель Лукес, Brittany Uomoleale, Трэвис Уиллингэм
Краткое описание: Первая из трех анимационных серий из романа Эрика Ниланда Halo: The Fall of Reach; сюжет раскрывает создание суперсолдат проекта SPARTAN-II (Спартанец-II) и сосредоточен на главном герое игр Halo — Джоне-117, также известном как Мастер Чиф.
  • Видео данные: MPEG-4 AVC, 2574 Кбит/с, 1024x432
    Аудио данные: AC3, 2 ch, 448 Кбит/с
    Перевод: Профессиональный многоголосый [Официальный звук]
    Продолжительность: 01:04:32
  • Halo: Падение Предела / Halo: The Fall of Reach (2015) BDRip-AVC Halo: Падение Предела / Halo: The Fall of Reach (2015) BDRip-AVC Halo: Падение Предела / Halo: The Fall of Reach (2015) BDRip-AVC
  • Format : Matroska
    Format version : Version 2
    File size : 1.38 GiB
    Duration : 1h 4mn
    Overall bit rate : 3 050 Kbps
    Encoded date : UTC 2015-12-01 09:44:48
    Writing application : mkvmerge v7.8.0 ('River Man') 32bit built on Apr 3 2015 12:11:22
    Writing library : libebml v1.3.1 + libmatroska v1.4.2

    Video
    ID : 1
    Format : AVC
    Format/Info : Advanced Video Codec
    Format profile : High@L4.1
    Format settings, CABAC : Yes
    Format settings, ReFrames : 9 frames
    Codec ID : V_MPEG4/ISO/AVC
    Duration : 1h 4mn
    Bit rate : 2 574 Kbps
    Width : 1 024 pixels
    Height : 432 pixels
    Display aspect ratio : 2.40:1
    Frame rate mode : Constant
    Frame rate : 23.976 fps
    Color space : YUV
    Chroma subsampling : 4:2:0
    Bit depth : 8 bits
    Scan type : Progressive
    Bits/(Pixel*Frame) : 0.243
    Stream size : 1.15 GiB (83%)
    Writing library : x264 core 146 r2538 121396c
    Encoding settings : cabac=1 / ref=9 / deblock=1:-3:-3 / analyse=0x3:0x133 / me=umh / subme=10 / psy=1 / psy_rd=1.00:0.20 / mixed_ref=1 / me_range=32 / chroma_me=1 / trellis=2 / 8x8dct=1 / cqm=0 / deadzone=21,11 / fast_pskip=0 / chroma_qp_offset=-3 / threads=6 / lookahead_threads=1 / sliced_threads=0 / nr=0 / decimate=0 / interlaced=0 / bluray_compat=0 / constrained_intra=0 / bframes=8 / b_pyramid=2 / b_adapt=2 / b_bias=0 / direct=3 / weightb=1 / open_gop=0 / weightp=2 / keyint=250 / keyint_min=23 / scenecut=40 / intra_refresh=0 / rc=2pass / mbtree=0 / bitrate=2574 / ratetol=1.0 / qcomp=0.60 / qpmin=0 / qpmax=69 / qpstep=4 / cplxblur=20.0 / qblur=0.5 / ip_ratio=1.40 / pb_ratio=1.30 / aq=1:1.00
    Language : English
    Default : Yes
    Forced : No

    Audio
    ID : 2
    Format : AC-3
    Format/Info : Audio Coding 3
    Mode extension : CM (complete main)
    Format settings, Endianness : Big
    Codec ID : A_AC3
    Duration : 1h 4mn
    Bit rate mode : Constant
    Bit rate : 448 Kbps
    Channel(s) : 2 channels
    Channel positions : Front: L R
    Sampling rate : 48.0 KHz
    Bit depth : 16 bits
    Compression mode : Lossy
    Stream size : 207 MiB (15%)
    Language : Russian
    Default : Yes
    Forced : No

    Text #1
    ID : 3
    Format : PGS
    Muxing mode : zlib
    Codec ID : S_HDMV/PGS
    Codec ID/Info : Picture based subtitle format used on BDs/HD-DVDs
    Language : Russian
    Default : No
    Forced : No

    Text #2
    ID : 4
    Format : PGS
    Muxing mode : zlib
    Codec ID : S_HDMV/PGS
    Codec ID/Info : Picture based subtitle format used on BDs/HD-DVDs
    Language : English
    Default : No
    Forced : No
10.0 из 10
голосов: 2
grab777 1-12-2015, 13:04
Информация
Посетители, находящиеся в группе Гости, не могут оставлять комментарии к данной публикации.