Панель пользователя
Регистрация

Воспользуйтесь социальными сетями для входа на https://freerutor.com

vk odnoklassniki facebook mailru yandex google
Популярное
Счетчик
Голосуй за нас
VIP на сайте
Популярное
Товары интернет магазина
загрузка...

Новые русские (2015) WEB-DLRip-AVC

Новые русские (2015) WEB-DLRip-AVC
Участники торрент обмена
Сидов Пиров Скачали
1 0 532
Характеристика
Размер Файлы
1.02 GB
Поделиться раздачей
Фильмы (AVC)
Наименование: Новые русские
Категория: Комедия, триллер, фантастика, драма
Произведено: Россия / Лук-фильм, Метрафильмс
Режиссер постановщик: Камила Сафина, Григорий Добрыгин, Оксана Михеева
В главных ролях: Виктор Сухоруков, Фандус Гаптуллин, Владимир Любовский, Максим Бартош, Елена Сердюкова, Сергей Маковецкий
Краткое описание: Коллекция короткометражных фильмов. Все шесть работ сделаны молодыми российскими режиссерами, все отличает та свобода, которую редко встретишь в большом отечественном кино. Молодежь не зависит от финансового диктата, ей плевать на цензурные запреты, она смела в обращении с жанрами и не стесняется нарушать любые правила.
  • Видео данные: MPEG-4 AVC, 1443 Кбит/с, 1024x576
    Аудио данные: Русский (AC3, 2 ch, 192 Кбит/с)
    Перевод: Оригинал
    Продолжительность: 01:29:10
  • Новые русские (2015) WEB-DLRip-AVC Новые русские (2015) WEB-DLRip-AVC Новые русские (2015) WEB-DLRip-AVC
  • Релиз от: by White Smoke / R.G. Resident

    General
    Unique ID : 206607471576422894736928713515731231309 (0x9B6F26D0D9E9BE94AFB67FD97B83A24D)
    Complete name : C:H0Bye.PyCCk1e.2015.WEB-DLRip-AVC.by.White Smoke.R.G.Resident.mkv
    Format : Matroska
    Format version : Version 4 / Version 2
    File size : 1.02 GiB
    Duration : 1h 29mn
    Overall bit rate : 1 636 Kbps
    Encoded date : UTC 2015-11-30 13:08:54
    Writing application : mkvmerge v6.8.0 ('Theme for Great Cities') 64bit built on Mar 2 2014 21:34:26
    Writing library : libebml v1.3.0 + libmatroska v1.4.1

    Video
    ID : 1
    Format : AVC
    Format/Info : Advanced Video Codec
    Format profile : High@L4.1
    Format settings, CABAC : Yes
    Format settings, ReFrames : 12 frames
    Codec ID : V_MPEG4/ISO/AVC
    Duration : 1h 29mn
    Bit rate : 1 443 Kbps
    Width : 1 024 pixels
    Height : 576 pixels
    Display aspect ratio : 16:9
    Frame rate : 24.000 fps
    Color space : YUV
    Chroma subsampling : 4:2:0
    Bit depth : 8 bits
    Scan type : Progressive
    Bits/(Pixel*Frame) : 0.102
    Stream size : 900 MiB (86%)
    Writing library : x264 core 146 r2538 121396c
    Encoding settings : cabac=1 / ref=12 / deblock=1:-3:-3 / analyse=0x3:0x113 / me=umh / subme=9 / psy=1 / psy_rd=1.00:0.00 / mixed_ref=1 / me_range=32 / chroma_me=1 / trellis=1 / 8x8dct=1 / cqm=0 / deadzone=21,11 / fast_pskip=1 / chroma_qp_offset=-2 / threads=6 / lookahead_threads=1 / sliced_threads=0 / nr=0 / decimate=1 / interlaced=0 / bluray_compat=0 / constrained_intra=0 / bframes=10 / b_pyramid=2 / b_adapt=2 / b_bias=10 / direct=1 / weightb=0 / open_gop=0 / weightp=2 / keyint=240 / keyint_min=24 / scenecut=40 / intra_refresh=0 / rc_lookahead=40 / rc=2pass / mbtree=1 / bitrate=1443 / ratetol=1.0 / qcomp=0.65 / qpmin=0 / qpmax=69 / qpstep=4 / cplxblur=20.0 / qblur=0.5 / ip_ratio=1.40 / aq=1:1.00
    Language : English
    Default : Yes
    Forced : No

    Audio
    ID : 2
    Format : AC-3
    Format/Info : Audio Coding 3
    Mode extension : CM (complete main)
    Codec ID : A_AC3
    Duration : 1h 29mn
    Bit rate mode : Constant
    Bit rate : 192 Kbps
    Channel(s) : 2 channels
    Channel positions : Front: L R
    Sampling rate : 48.0 KHz
    Bit depth : 16 bits
    Compression mode : Lossy
    Stream size : 122 MiB (12%)
    Default : Yes
    Forced : No
6.8 из 10
голосов: 12
/10
/10
grab777 1-12-2015, 03:26

vovka-81 | 3-01-2016, 16:07 | Статус: Оффлайн

Спасибо раздающим и залившему за труды.Но мне не понравилось....БРЕД.
Информация
Посетители, находящиеся в группе Гости, не могут оставлять комментарии к данной публикации.