Панель пользователя
Регистрация

Воспользуйтесь социальными сетями для входа на https://freerutor.com

vk odnoklassniki facebook mailru yandex google
Популярное
Счетчик
Голосуй за нас
VIP на сайте
Популярное
Товары интернет магазина
загрузка...

Чужой (1-24 серии из 24) (2014) HDTV 1080i

Чужой (1-24 серии из 24) (2014) HDTV 1080i
Участники торрент обмена
Сидов Пиров Скачали
0 0 60
Характеристика
Размер Файлы
63.43 GB
Релиз группа
Поделиться раздачей
Русские сериалы
Оригинальное наименование: Чужой
Категория: Боевик, детектив, криминал
Произведено: Россия / Форвард-фильм
Режиссер постановщик: Георгий Даниелянц, Вадим Саетгалиев, Петр Забелин
В главных ролях: Сергей Горобченко, Дмитрий Паламарчук, Игорь Иванов, Наталья Андреева, Валентин Захаров, Валерия Сухачева, Ирина Гершт, Мария Шустрова, Кирилл Ховрин, Олег Хамитов
Краткое описание: Главный герой сериала, Михаил Аристов, после развода принимает решение вернуться на родину из Австралии, где работал рейнджером в национальном парке. Он абсолютно не представляет себе реалий жизни в современной России. Он привык к обществу равных перед законом людей, к полиции, которая это равенство защищает, к наказанию преступников, невзирая на персоналии. В результате случайного уличного конфликта на Аристова возбуждают уголовное дело. Единственный, кто может ему помочь — начальник уголовного розыска одного из районов полковник Водяной, отчим старого школьного друга. В качестве ответной услуги, Водяной предлагает Аристову поработать в качестве его агента, став водителем салона элитного «эскорта». Он должен среди девушек, работающих в салоне, вычислить проститутку, связанную с преступниками, совершившим налет на особняк олигарха Акулина. Аристов и не представляет, к каким глобальным изменениям в его жизни, к каким драматическим событиям приведет его эта просьба.
  • Видео данные: MPEG-TS, 8500 Кбит/с, 1920x1080
    Аудио данные: Русский (MP2, 2 ch, 192 Кбит/с)
    Перевод: Оригинал
    Продолжительность: 24 x ~ 00:46:00
  • Чужой (1-24 серии из 24) (2014) HDTV 1080i Чужой (1-24 серии из 24) (2014) HDTV 1080i Чужой (1-24 серии из 24) (2014) HDTV 1080i
  • Внимание! Раздача ведётся путём добавления новых выпусков; при каждом добавлении создаётся новый торрент. Чтобы начать докачку нового выпуска, пользователям необходимо сделать следующее:
    (1) остановить скачивание,
    (2) удалить старый торрент у себя из клиента (старые серии удалять не надо),
    (3) скачать новый торрент и запустить его у себя в клиенте вместо старого, при этом указать клиенту путь в старую папку куда и должно происходить скачивание новых выпусков.
    Ваш клиент при этом должен произвести хеширование (проверку) старой папки (если не производит сам - помогите ему сделать это). В результате он будет докачивать только те выпуски, которых у Вас ещё нет. Старые выпуски при этом не удаляются, а продолжают раздаваться!
    Eсли Вы уже удалили старые выпуски, то предотвратить их повторную закачку можно, сняв галочки в соответствующих местах при запуске нового торрента. По возможности, желательно не удалять старые выпуски как можно дольше, чтобы релизёр не только продолжал раздавать старые выпуски, но и смог сконцентрироваться на новых.

    Как скачать отдельный файл
  • Общее
    Идентификатор : 1 (0x1)
    Полное имя : F:\Фильмы торренты\Chuzoj.2014.HDTV.(1080i).MediaClub\Chuzoj.(01.seriya.iz.24).2014.HDTV.(1080i).MediaClub.ts
    Формат : MPEG-TS
    Размер файла : 2,74 Гбайт
    Продолжительность : 46 м.
    Режим общего битрейта : Переменный
    Общий поток : 8466 Кбит/сек

    Видео
    Идентификатор : 901 (0x385)
    Идентификатор меню : 90 (0x5A)
    Формат : AVC
    Формат/Информация : Advanced Video Codec
    Профиль формата : Main@L4.0
    Параметр CABAC формата : Да
    Параметр ReFrames формата : 2 кадра
    Параметр GOP формата : M=3, N=30
    Идентификатор кодека : 27
    Продолжительность : 46 м.
    Битрейт : 7854 Кбит/сек
    Ширина : 1920 пикселей
    Высота : 1080 пикселей
    Соотношение сторон : 16:9
    Частота кадров : 25,000 кадров/сек
    Цветовое пространство : YUV
    Субдискретизация насыщенности : 4:2:0
    Битовая глубина : 8 бит
    Тип развёртки : MBAFF
    Бит/(Пиксели*Кадры) : 0.152
    Размер потока : 2,54 Гбайт (93%)
    Основные цвета : BT.709
    Характеристики трансфера : BT.709
    Коэффициенты матрицы : BT.709

    Аудио
    Идентификатор : 902 (0x386)
    Идентификатор меню : 90 (0x5A)
    Формат : MPEG Audio
    Версия формата : Version 1
    Профиль формата : Layer 2
    Идентификатор кодека : 3
    Продолжительность : 46 м.
    Вид битрейта : Постоянный
    Битрейт : 192 Кбит/сек
    Каналы : 2 канала
    Частота : 48,0 КГц
    Метод сжатия : С потерями
    Задержка видео : -40 мс.
    Размер потока : 63,6 Мбайт (2%)
    Язык : Russian
8.3 из 10
голосов: 21
/10
/10
Раздачу отредактировал: grab777 - 11-12-2015, 09:04
По причине: (+24 серия!)
grab777 11-12-2015, 09:04
Информация
Посетители, находящиеся в группе Гости, не могут оставлять комментарии к данной публикации.