Панель пользователя
Регистрация

Воспользуйтесь социальными сетями для входа на https://freerutor.com

vk odnoklassniki facebook mailru yandex google
Популярное
Счетчик
Голосуй за нас
VIP на сайте
Популярное
Товары интернет магазина
загрузка...

Хитмэн: Агент 47 / Hitman: Agent 47 (2015) BDRip 720p | 60 fps | Лицензия

Хитмэн: Агент 47 / Hitman: Agent 47 (2015) BDRip 720p | 60 fps | Лицензия
Участники торрент обмена
Сидов Пиров Скачали
0 5 349
Характеристика
Размер Файлы
9.70 GB
Релиз группа
Поделиться раздачей
Фильмы (720,1080,Blu-Ray)
Наименование: Хитмэн: Агент 47
Оригинальное наименование: Hitman: Agent 47
Категория: Боевик, фантастика, триллер
Произведено: США, Германия, Сингапур / 20th Century Fox Film Corporation, Fox International Productions
Режиссер постановщик: Александр Бах
В главных ролях: Руперт Френд, Закари Куинто, Ханна Уэр, Киран Хайндс, Томас Кречман, Эмилио Ривера, Дэн Баккедаль, Джерри Хоффманн, Дэвид Брюкнер, Рольф Канис
Краткое описание: История об элитном убийце, созданном при помощи генной инженерии, который объединяется с женщиной, чтобы помочь ей найти отца и раскрыть тайну своего происхождения.
  • Видео данные: MPEG-4 AVC, 11149 Кбит/с, 1280x544
    Аудио данные: Русский (DTS, 6 ch, 755 Кбит/с), (AC3, 6 ch, 640 Кбит/с), английский (DTS-HD MA, 6 ch, 1597 Кбит/с)
    Перевод: Дублированный [Лицензия]
    Субтитры: Русские, украинские, английские
    Продолжительность: 01:36:16
  • Хитмэн: Агент 47 / Hitman: Agent 47 (2015) BDRip 720p | 60 fps | Лицензия Хитмэн: Агент 47 / Hitman: Agent 47 (2015) BDRip 720p | 60 fps | Лицензия Хитмэн: Агент 47 / Hitman: Agent 47 (2015) BDRip 720p | 60 fps | Лицензия
  • General
    Unique ID : 214998175663017737235297130386857590489 (0xA1BF2477971E7576A5AAD916150AFED9)
    Complete name : E:ПлавноеХитмэн 2015 [Ressident].mkv
    Format : Matroska
    Format version : Version 4 / Version 2
    File size : 9.70 GiB
    Duration : 1h 36mn
    Overall bit rate mode : Variable
    Overall bit rate : 14.4 Mbps
    Movie name : Hitman: Agent 47 60fps [Ressident]
    Encoded date : UTC 2015-11-30 13:58:03
    Writing application : mkvmerge v7.0.0 ('Where We Going') 64bit built on Jun 9 2014 15:16:27
    Writing library : libebml v1.3.0 + libmatroska v1.4.1

    Video
    ID : 1
    Format : AVC
    Format/Info : Advanced Video Codec
    Format profile : Main@L4.1
    Format settings, CABAC : Yes
    Format settings, ReFrames : 9 frames
    Codec ID : V_MPEG4/ISO/AVC
    Duration : 1h 36mn
    Bit rate : 11.1 Mbps
    Width : 1 280 pixels
    Height : 544 pixels
    Display aspect ratio : 2.35:1
    Frame rate : 59.940 fps
    Color space : YUV
    Chroma subsampling : 4:2:0
    Bit depth : 8 bits
    Scan type : Progressive
    Bits/(Pixel*Frame) : 0.267
    Stream size : 7.50 GiB (77%)
    Writing library : x264 core 146 r2538 121396c
    Encoding settings : cabac=1 / ref=9 / deblock=1:0:0 / analyse=0x1:0x111 / me=umh / subme=10 / psy=1 / psy_rd=1.00:0.00 / mixed_ref=1 / me_range=32 / chroma_me=0 / trellis=2 / 8x8dct=0 / cqm=0 / deadzone=21,11 / fast_pskip=1 / chroma_qp_offset=-2 / threads=12 / lookahead_threads=2 / sliced_threads=0 / nr=0 / decimate=0 / interlaced=0 / bluray_compat=0 / constrained_intra=0 / bframes=7 / b_pyramid=2 / b_adapt=2 / b_bias=0 / direct=3 / weightb=1 / open_gop=0 / weightp=2 / keyint=250 / keyint_min=25 / scenecut=40 / intra_refresh=0 / rc=crf / mbtree=0 / crf=14.5 / qcomp=0.60 / qpmin=0 / qpmax=69 / qpstep=4 / ip_ratio=1.40 / pb_ratio=1.30 / aq=1:1.00
    Language : English
    Default : Yes
    Forced : No

    Audio #1
    ID : 2
    Format : AC-3
    Format/Info : Audio Coding 3
    Mode extension : CM (complete main)
    Codec ID : A_AC3
    Duration : 1h 36mn
    Bit rate mode : Constant
    Bit rate : 640 Kbps
    Channel(s) : 6 channels
    Channel positions : Front: L C R, Side: L R, LFE
    Sampling rate : 48.0 KHz
    Bit depth : 16 bits
    Compression mode : Lossy
    Stream size : 441 MiB (4%)
    Title : Дубляж
    Language : Russian
    Default : Yes
    Forced : No

    Audio #2
    ID : 3
    Format : DTS
    Format/Info : Digital Theater Systems
    Codec ID : A_DTS
    Duration : 1h 36mn
    Bit rate mode : Constant
    Bit rate : 755 Kbps
    Channel(s) : 6 channels
    Channel positions : Front: L C R, Side: L R, LFE
    Sampling rate : 48.0 KHz
    Bit depth : 24 bits
    Compression mode : Lossy
    Stream size : 520 MiB (5%)
    Title : Дубляж
    Language : Russian
    Default : No
    Forced : No

    Audio #3
    ID : 4
    Format : DTS
    Format/Info : Digital Theater Systems
    Format profile : MA / Core
    Codec ID : A_DTS
    Duration : 1h 36mn
    Bit rate mode : Variable
    Bit rate : 1 597 Kbps / 1 510 Kbps
    Channel(s) : 8 channels / 6 channels
    Channel positions : Front: L C R, Side: L R, Back: L R, LFE / Front: L C R, Side: L R, LFE
    Sampling rate : 48.0 KHz
    Bit depth : 24 bits
    Compression mode : Lossless / Lossy
    Title : English
    Language : English
    Default : No
    Forced : No

    Text #1
    ID : 5
    Format : UTF-8
    Codec ID : S_TEXT/UTF8
    Codec ID/Info : UTF-8 Plain Text
    Title : Russian
    Language : Russian
    Default : Yes
    Forced : No

    Text #2
    ID : 6
    Format : UTF-8
    Codec ID : S_TEXT/UTF8
    Codec ID/Info : UTF-8 Plain Text
    Title : Ukrainian
    Language : Ukrainian
    Default : No
    Forced : No

    Text #3
    ID : 7
    Format : UTF-8
    Codec ID : S_TEXT/UTF8
    Codec ID/Info : UTF-8 Plain Text
    Title : English Full
    Language : English
    Default : No
    Forced : No

    Text #4
    ID : 8
    Format : UTF-8
    Codec ID : S_TEXT/UTF8
    Codec ID/Info : UTF-8 Plain Text
    Title : English SDH
    Language : English
    Default : No
    Forced : No

    Text #5
    ID : 9
    Format : UTF-8
    Codec ID : S_TEXT/UTF8
    Codec ID/Info : UTF-8 Plain Text
    Title : English SDH-Colored
    Language : English
    Default : No
    Forced : No

    Menu
    00:00:00.000 : :(01)00:00:00:000
    00:07:11.347 : :(02)00:07:11:347
    00:09:02.959 : :(03)00:09:02:959
    00:13:11.582 : :(04)00:13:11:582
    00:16:21.605 : :(05)00:16:21:605
    00:19:22.786 : :(06)00:19:22:786
    00:24:43.815 : :(07)00:24:43:815
    00:27:19.179 : :(08)00:27:19:179
    00:30:18.691 : :(09)00:30:18:691
    00:33:03.815 : :(10)00:33:03:815
    00:38:18.713 : :(11)00:38:18:713
    00:43:11.755 : :(12)00:43:11:755
    00:46:53.435 : :(13)00:46:53:435
    00:50:39.870 : :(14)00:50:39:870
    00:54:02.530 : :(15)00:54:02:530
    00:59:50.587 : :(16)00:59:50:587
    01:06:01.749 : :(17)01:06:01:749
    01:09:06.142 : :(18)01:09:06:142
    01:13:23.190 : :(19)01:13:23:190
    01:16:55.319 : :(20)01:16:55:319
    01:21:15.745 : :(21)01:21:15:745
    01:25:20.824 : :(22)01:25:20:824
    01:28:06.155 : :(23)01:28:06:155
    01:31:17.847 : :(24)01:31:17:847
8.6 из 10
голосов: 7
/10
/10
grab777 30-11-2015, 20:25

RG HDFilms | 30-11-2015, 22:07 | Статус: Оффлайн

Всем приятного просмотра!!!
Информация
Посетители, находящиеся в группе Гости, не могут оставлять комментарии к данной публикации.