Панель пользователя
Регистрация

Воспользуйтесь социальными сетями для входа на https://freerutor.com

vk odnoklassniki facebook mailru yandex google
Популярное
Счетчик
Голосуй за нас
VIP на сайте
Популярное
Товары интернет магазина
загрузка...

R100 / R100 (2013) BDRip-AVC

R100 / R100 (2013) BDRip-AVC
Участники торрент обмена
Сидов Пиров Скачали
0 0 25
Характеристика
Размер Файлы
3.05 GB
Релиз группа
Поделиться раздачей
Фильмы (AVC)
Наименование: R100
Оригинальное наименование: R100
Категория: Драма, комедия
Произведено: Япония / Warner Bros., Phantom Film, Yoshimoto Kogyo Co. Ltd.
Режиссер постановщик: Хитоси Мацумото
В главных ролях: Мао Даичи, Линдсей Кэй Хейуорд, Хаири Катагири, Джин Маеда, Хитоси Мацумото, Сузуки Мацуо, Мичи Ито, Харуки Нисимото, Эрико Сато, Синобу Терадзима
Краткое описание: Продавец мебели Такафуми как может заботится о сыне-подростке и жене, уже несколько лет находящейся после аварии в коме. Впадая в депрессию и идя на крайние меры, чтобы найти утешение для своего горя, он натыкается на тайный клуб S&M под названием «Рабство», в котором только два правила: подписывается контракт на год, и он должен быть покорным в течении этого времени…
  • Видео данные: MPEG-4 AVC, 3500 Кбит/с, 1024x576
    Аудио данные: Русский, японский (AC3, 6 ch, 448 Кбит/с)
    Перевод: Любительское одноголосое [PashaUp]
    Субтитры: Русские, английские
    Продолжительность: 01:39:20
  • R100 / R100 (2013) BDRip-AVC R100 / R100 (2013) BDRip-AVC R100 / R100 (2013) BDRip-AVC
  • File size : 3.05 GiB
    Duration : 1h 39mn
    Overall bit rate : 4 398 Kbps
    Encoded date : UTC 2015-11-23 07:47:14
    Writing application : mkvmerge v2.1.0 ('Another Place To Fall') built on Aug 19 2007 13:40:07
    Writing library : libebml v0.7.7 + libmatroska v0.8.1

    Video
    ID : 1
    Format : AVC
    Format/Info : Advanced Video Codec
    Format profile : High@L4.1
    Format settings, CABAC : Yes
    Format settings, ReFrames : 9 frames
    Codec ID : V_MPEG4/ISO/AVC
    Duration : 1h 39mn
    Bit rate : 3 500 Kbps
    Width : 1 024 pixels
    Height : 576 pixels
    Display aspect ratio : 16:9
    Frame rate mode : Constant
    Frame rate : 23.976 fps
    Color space : YUV
    Chroma subsampling : 4:2:0
    Bit depth : 8 bits
    Scan type : Progressive
    Bits/(Pixel*Frame) : 0.247
    Stream size : 2.37 GiB (78%)
    Writing library : x264 core 146 r2538 121396c
    Encoding settings : cabac=1 / ref=9 / deblock=1:-2:-2 / analyse=0x3:0x113 / me=umh / subme=11 / psy=1 / psy_rd=1.00:0.01 / mixed_ref=1 / me_range=32 / chroma_me=1 / trellis=2 / 8x8dct=1 / cqm=0 / deadzone=21,11 / fast_pskip=0 / chroma_qp_offset=-3 / threads=6 / lookahead_threads=1 / sliced_threads=0 / nr=0 / decimate=0 / interlaced=0 / bluray_compat=0 / constrained_intra=0 / bframes=8 / b_pyramid=2 / b_adapt=2 / b_bias=0 / direct=3 / weightb=1 / open_gop=0 / weightp=2 / keyint=240 / keyint_min=23 / scenecut=40 / intra_refresh=0 / rc_lookahead=40 / rc=2pass / mbtree=0 / bitrate=3500 / ratetol=1.0 / qcomp=0.60 / qpmin=0 / qpmax=69 / qpstep=4 / cplxblur=20.0 / qblur=0.5 / vbv_maxrate=14000 / vbv_bufsize=14000 / nal_hrd=none / filler=0 / ip_ratio=1.40 / pb_ratio=1.30 / aq=1:0.80
    Language : English
    Default : Yes
    Forced : No

    Audio #1
    ID : 2
    Format : AC-3
    Format/Info : Audio Coding 3
    Mode extension : CM (complete main)
    Format settings, Endianness : Big
    Codec ID : A_AC3
    Duration : 1h 39mn
    Bit rate mode : Constant
    Bit rate : 448 Kbps
    Channel(s) : 6 channels
    Channel positions : Front: L C R, Side: L R, LFE
    Sampling rate : 48.0 KHz
    Bit depth : 16 bits
    Compression mode : Lossy
    Stream size : 318 MiB (10%)
    Title : VO (PashaUp)
    Language : Russian
    Default : Yes
    Forced : No

    Audio #2
    ID : 3
    Format : AC-3
    Format/Info : Audio Coding 3
    Mode extension : CM (complete main)
    Format settings, Endianness : Big
    Codec ID : A_AC3
    Duration : 1h 39mn
    Bit rate mode : Constant
    Bit rate : 448 Kbps
    Channel(s) : 6 channels
    Channel positions : Front: L C R, Side: L R, LFE
    Sampling rate : 48.0 KHz
    Bit depth : 16 bits
    Compression mode : Lossy
    Stream size : 318 MiB (10%)
    Language : Japanese
    Default : No
    Forced : No

    Text
    ID : 4
    Format : UTF-8
    Codec ID : S_TEXT/UTF8
    Codec ID/Info : UTF-8 Plain Text
    Language : Russian
    Default : No
    Forced : No

    Menu
    00:00:00.000 : ja:Chapter 1
    00:07:34.829 : ja:Chapter 2
    00:12:46.015 : ja:Chapter 3
    00:22:12.039 : ja:Chapter 4
    00:30:05.011 : ja:Chapter 5
    00:38:13.541 : ja:Chapter 6
    00:49:41.019 : ja:Chapter 7
    00:58:24.584 : ja:Chapter 8
    01:10:19.298 : ja:Chapter 9
    01:17:15.464 : ja:Chapter 10
    01:26:14.711 : ja:Chapter 11
    01:34:31.540 : ja:Chapter 12
    01:39:19.912 : ja:Chapter 13
10.0 из 10
голосов: 1
/10
/10
grab777 30-11-2015, 05:27
Информация
Посетители, находящиеся в группе Гости, не могут оставлять комментарии к данной публикации.