Панель пользователя
Регистрация

Воспользуйтесь социальными сетями для входа на https://freerutor.com

vk odnoklassniki facebook mailru yandex google
Популярное
Счетчик
Голосуй за нас
VIP на сайте
Популярное
Товары интернет магазина
загрузка...

Зеркала 2 / Mirrors 2 (2010) BDRip 720р

Зеркала 2 / Mirrors 2 (2010) BDRip 720р
Участники торрент обмена
Сидов Пиров Скачали
6 0 1193
Характеристика
Размер Файлы
2.57 GB
Поделиться раздачей
Фильмы (720,1080,Blu-Ray)
Наименование: Зеркала 2
Оригинальное наименование: Mirrors 2
Категория: Ужасы, триллер, детектив
Произведено: США / 20th Century Fox, Fox 2000 Pictures, Upload Films
Режиссер постановщик: Виктор Гарсия
В главных ролях: Ник Стал, Эммануэль Вожье, Ивэн Джонс, Кристи Карлсон Романо, Уильям Кэтт, Лоуренс Тернер, Стефани Онор
Краткое описание: Макс, выздоравливающий после травмирующего несчастного случая, устраивается на работу ночным охранником. Он начинает видеть глазами молодой таинственной женщины, отражающейся в зеркале магазина.
  • Видео данные: MPEG-4 AVC, 3072 Кбит/с, 1280x720
    Аудио данные: Русский (AC-3, 6ch, 384 kbps), английский (AC-3, 6ch, 640 kbps)
    Перевод: Профессиональный многоголосый
    Субтитры: Русские, английские
    Продолжительность: 01:30:11
  • Зеркала 2 / Mirrors 2 (2010) BDRip 720р Зеркала 2 / Mirrors 2 (2010) BDRip 720р Зеркала 2 / Mirrors 2 (2010) BDRip 720р
  • General
    Unique ID : 193749066759573835159947537056827732279 (0x91C2B68308F1BCDB91761C14A3B87137)
    Complete name : F:ФИЛЬМЫЗеркала-2.2010.x264.BDRip.720p.mkv
    Format : Matroska
    Format version : Version 4 / Version 2
    File size : 2.57 GiB
    Duration : 1h 30mn
    Overall bit rate : 4 081 Kbps
    Movie name : HANSMER
    Encoded date : UTC 2015-11-29 20:08:04
    Writing application : mkvmerge v8.3.0 ('Over the Horizon') 64bit
    Writing library : libebml v1.3.1 + libmatroska v1.4.2
    DURATION : 01:30:11.424000000
    NUMBER_OF_FRAMES : 169107
    NUMBER_OF_BYTES : 432913920
    _STATISTICS_WRITING_APP : mkvmerge v8.3.0 ('Over the Horizon') 64bit
    _STATISTICS_WRITING_DATE_UT : 2015-11-29 20:08:04
    _STATISTICS_TAGS : BPS DURATION NUMBER_OF_FRAMES NUMBER_OF_BYTES

    Video
    ID : 1
    Format : AVC
    Format/Info : Advanced Video Codec
    Format profile : High@L4.1
    Format settings, CABAC : Yes
    Format settings, ReFrames : 9 frames
    Codec ID : V_MPEG4/ISO/AVC
    Duration : 1h 30mn
    Bit rate : 3 072 Kbps
    Width : 1 280 pixels
    Height : 720 pixels
    Display aspect ratio : 16:9
    Frame rate mode : Constant
    Frame rate : 23.976 fps
    Color space : YUV
    Chroma subsampling : 4:2:0
    Bit depth : 8 bits
    Scan type : Progressive
    Bits/(Pixel*Frame) : 0.139
    Stream size : 1.87 GiB (73%)
    Writing library : x264 core 146 r2538 121396c
    Encoding settings : cabac=1 / ref=9 / deblock=1:-1:-1 / analyse=0x3:0x113 / me=umh / subme=11 / psy=1 / psy_rd=1.00:0.00 / mixed_ref=1 / me_range=32 / chroma_me=1 / trellis=2 / 8x8dct=1 / cqm=0 / deadzone=21,11 / fast_pskip=1 / chroma_qp_offset=-2 / threads=6 / lookahead_threads=1 / sliced_threads=0 / nr=0 / decimate=1 / interlaced=0 / bluray_compat=0 / constrained_intra=0 / bframes=8 / b_pyramid=2 / b_adapt=2 / b_bias=0 / direct=3 / weightb=1 / open_gop=0 / weightp=2 / keyint=240 / keyint_min=22 / scenecut=40 / intra_refresh=0 / rc_lookahead=40 / rc=2pass / mbtree=1 / bitrate=3072 / ratetol=1.0 / qcomp=0.60 / qpmin=0 / qpmax=69 / qpstep=4 / cplxblur=20.0 / qblur=0.5 / vbv_maxrate=62500 / vbv_bufsize=78125 / nal_hrd=none / filler=0 / ip_ratio=1.40 / aq=1:1.00
    Default : Yes
    Forced : No

    Audio #1
    ID : 2
    Format : AC-3
    Format/Info : Audio Coding 3
    Mode extension : CM (complete main)
    Format settings, Endianness : Big
    Codec ID : A_AC3
    Duration : 1h 30mn
    Bit rate mode : Constant
    Bit rate : 384 Kbps
    Channel(s) : 6 channels
    Channel positions : Front: L C R, Side: L R, LFE
    Sampling rate : 48.0 KHz
    Compression mode : Lossy
    Stream size : 248 MiB (9%)
    Language : Russian
    Default : Yes
    Forced : No

    Audio #2
    ID : 3
    Format : AC-3
    Format/Info : Audio Coding 3
    Mode extension : CM (complete main)
    Format settings, Endianness : Big
    Codec ID : A_AC3
    Duration : 1h 30mn
    Bit rate mode : Constant
    Bit rate : 640 Kbps
    Channel(s) : 6 channels
    Channel positions : Front: L C R, Side: L R, LFE
    Sampling rate : 48.0 KHz
    Compression mode : Lossy
    Stream size : 413 MiB (16%)
    Language : English
    Default : No
    Forced : No

    Text #1
    ID : 4
    Format : UTF-8
    Codec ID : S_TEXT/UTF8
    Codec ID/Info : UTF-8 Plain Text
    Title : Forced
    Language : Russian
    Default : Yes
    Forced : No

    Text #2
    ID : 5
    Format : UTF-8
    Codec ID : S_TEXT/UTF8
    Codec ID/Info : UTF-8 Plain Text
    Title : Full
    Language : Russian
    Default : No
    Forced : No

    Text #3
    ID : 6
    Format : UTF-8
    Codec ID : S_TEXT/UTF8
    Codec ID/Info : UTF-8 Plain Text
    Language : English
    Default : No
    Forced : No

    Text #4
    ID : 7
    Format : UTF-8
    Codec ID : S_TEXT/UTF8
    Codec ID/Info : UTF-8 Plain Text
    Title : SDH
    Language : English
    Default : No
    Forced : No
10.0 из 10
голосов: 2
/10
/10
grab777 30-11-2015, 01:16
Информация
Посетители, находящиеся в группе Гости, не могут оставлять комментарии к данной публикации.