Панель пользователя
Регистрация

Воспользуйтесь социальными сетями для входа на https://freerutor.com

vk odnoklassniki facebook mailru yandex google
Популярное
Счетчик
Голосуй за нас
VIP на сайте
Популярное
Товары интернет магазина
загрузка...

Приключения Бэйли: Рождественский герой / Adventures of Bailey: Christmas Hero (2012) HDTVRip 1080p

Приключения Бэйли: Рождественский герой / Adventures of Bailey: Christmas Hero (2012) HDTVRip 1080p
Участники торрент обмена
Сидов Пиров Скачали
1 0 85
Характеристика
Размер Файлы
3.13 GB
Поделиться раздачей
Фильмы (720,1080,Blu-Ray)
Наименование: Приключения Бэйли: Рождественский герой
Оригинальное наименование: Adventures of Bailey: Christmas Hero
Категория: Семейный
Произведено: США / Hungry Bear Productions
Режиссер постановщик: Стив Франке
В главных ролях: Рик Шью, Трей Бампасс, Лиз Франке, Кристин Галиэн, Лизбет Карденас, Грант Джеймс, Джули Эриксон, Кензи Пэллоун, Эндрю Хэйр, Сидни Рейнхарт
Краткое описание: Невероятные рождественские приключения пса Бэйли, которые помогут ему понять весь смысл Рождества и почувствовать дух этого праздника.
  • Видео данные: MPEG-4 AVC, 5000 Кбит/с, 1920x1080
    Аудио данные: Русский (AC3, 6 ch, 448 Кбит/с)
    Перевод: Профессиональный многоголосый
    Продолжительность: 01:22:39
  • Приключения Бэйли: Рождественский герой / Adventures of Bailey: Christmas Hero (2012) HDTVRip 1080p Приключения Бэйли: Рождественский герой / Adventures of Bailey: Christmas Hero (2012) HDTVRip 1080p Приключения Бэйли: Рождественский герой / Adventures of Bailey: Christmas Hero (2012) HDTVRip 1080p
  • Общее
    Уникальный идентификатор : 241611357120365575069926825501865502595 (0xB5C4A79E3C005233AABE66B1DBCB6783)
    Полное имя : Christmas.Hero.2012.HDTVRip.1080p.mkv
    Формат : Matroska
    Версия формата : Version 4 / Version 2
    Размер файла : 3,13 Гбайт
    Продолжительность : 1 ч. 22 м.
    Общий поток : 5415 Кбит/сек
    Дата кодирования : UTC 2015-10-13 11:08:06
    Программа кодирования : mkvmerge v7.9.0 ('Birds') 64bit
    Библиотека кодирования : Lavf57.3.100

    Видео
    Идентификатор : 1
    Формат : AVC
    Формат/Информация : Advanced Video Codec
    Профиль формата : High@L4.1
    Параметр CABAC формата : Да
    Параметр ReFrames формата : 4 кадра
    Идентификатор кодека : V_MPEG4/ISO/AVC
    Продолжительность : 1 ч. 22 м.
    Битрейт : 5000 Кбит/сек
    Ширина : 1920 пикселей
    Высота : 1080 пикселей
    Соотношение сторон : 16:9
    Режим частоты кадров : Постоянный
    Частота кадров : 25,000 кадров/сек
    Цветовое пространство : YUV
    Субдискретизация насыщенности : 4:2:0
    Битовая глубина : 8 бит
    Тип развёртки : Прогрессивная
    Бит/(Пиксели*Кадры) : 0.096
    Размер потока : 2,81 Гбайт (90%)
    Библиотека кодирования : x264 core 148 r2538
    Настройки программы : cabac=1 / ref=4 / deblock=1:0:0 / analyse=0x3:0x133 / me=umh / subme=8 / psy=1 / psy_rd=1.00:0.00 / mixed_ref=0 / me_range=16 / chroma_me=1 / trellis=1 / 8x8dct=1 / cqm=0 / deadzone=21,11 / fast_pskip=1 / chroma_qp_offset=-2 / threads=6 / lookahead_threads=1 / sliced_threads=0 / nr=0 / decimate=1 / interlaced=0 / bluray_compat=0 / constrained_intra=0 / bframes=3 / b_pyramid=0 / b_adapt=2 / b_bias=0 / direct=3 / weightb=1 / open_gop=0 / weightp=2 / keyint=250 / keyint_min=25 / scenecut=40 / intra_refresh=0 / rc_lookahead=50 / rc=2pass / mbtree=1 / bitrate=5000 / ratetol=1.0 / qcomp=0.60 / qpmin=10 / qpmax=69 / qpstep=4 / cplxblur=20.0 / qblur=0.5 / vbv_maxrate=5000 / vbv_bufsize=24000 / nal_hrd=none / filler=0 / ip_ratio=1.40 / aq=3:1.00
    Язык : English
    Default : Да
    Forced : Нет
    DURATION : 01:22:42.880000000

    Аудио
    Идентификатор : 2
    Формат : AC-3
    Формат/Информация : Audio Coding 3
    Расширение режима : CM (complete main)
    Параметр Endianness формата : Big
    Идентификатор кодека : A_AC3
    Продолжительность : 1 ч. 22 м.
    Вид битрейта : Постоянный
    Битрейт : 448 Кбит/сек
    Каналы : 6 каналов
    Расположение каналов : Front: L C R, Side: L R, LFE
    Частота : 48,0 КГц
    Метод сжатия : С потерями
    Задержка видео : -920 мс.
    Размер потока : 265 Мбайт (8%)
    Язык : Russian
    Default : Да
    Forced : Нет
    DURATION : 01:22:41.952000000
10.0 из 10
голосов: 1
/10
/10
grab777 30-11-2015, 00:44
Информация
Посетители, находящиеся в группе Гости, не могут оставлять комментарии к данной публикации.