Панель пользователя
Регистрация

Воспользуйтесь социальными сетями для входа на https://freerutor.com

vk odnoklassniki facebook mailru yandex google
Популярное
Счетчик
Голосуй за нас
VIP на сайте
Популярное
Товары интернет магазина
загрузка...

Следствие вели - Любовь и золото (эфир от 28.11.2015) HDTV 1080i

Следствие вели - Любовь и золото (эфир от 28.11.2015) HDTV 1080i
Участники торрент обмена
Сидов Пиров Скачали
0 0 29
Характеристика
Размер Файлы
2.32 GB
Релиз группа
Поделиться раздачей
Документальный
Оригинальное наименование: Следствие вели... с Леонидом Каневским
Категория: Документальный, детектив, криминал, расследование
Произведено: Россия / НТВ
Режиссер постановщик: Александр Ярославцев
Ведущий: Леонид Каневский
Краткое описание: 1978 год. На окраине Ленинграда в заброшенном доме школьник наталкивается на труп повешенного мужчины. Тот странно одет: в черный смокинг, галстук-бабочку и лакированные туфли. Кто это? Артист? Музыкант? А, быть может, иностранец? Местные милиционеры все списывают на суицид. И не догадываются: это вовсе не самоубийство. Вскоре по Ленинграду прокатится череда дерзких преступлений: ограбления, налеты, убийства и даже отравления советских граждан препаратами, находящимися под особым контролем. За дело берутся лучшие сыщики ЛУРа – ленинградского уголовного розыска. И поможет им в поимке преступников женская любовь и женская месть.
  • Видео данные: MPEG-TS, 7987 Кбит/с, 1920x1080
    Аудио данные: Русский (MP2, 2 ch, 192 Кбит/с)
    Перевод: Оригинал
    Продолжительность: 00:39:39
  • Следствие вели - Любовь и золото (эфир от 28.11.2015) HDTV 1080i Следствие вели - Любовь и золото (эфир от 28.11.2015) HDTV 1080i Следствие вели - Любовь и золото (эфир от 28.11.2015) HDTV 1080i
  • Общее
    Идентификатор : 1 (0x1)
    Полное имя : F:\Фильмы торренты\Sledstvie.veli.(2015.28.11).2015.HDTV.(1080i).MediaClub.ts
    Формат : MPEG-TS
    Размер файла : 2,32 Гбайт
    Продолжительность : 41 м.
    Режим общего битрейта : Переменный
    Общий поток : 7987 Кбит/сек

    Видео
    Идентификатор : 201 (0xC9)
    Идентификатор меню : 2201 (0x899)
    Формат : AVC
    Формат/Информация : Advanced Video Codec
    Профиль формата : Main@L4.0
    Параметр CABAC формата : Да
    Параметр ReFrames формата : 4 кадра
    Идентификатор кодека : 27
    Продолжительность : 41 м.
    Битрейт : 7398 Кбит/сек
    Ширина : 1920 пикселей
    Высота : 1080 пикселей
    Соотношение сторон : 16:9
    Частота кадров : 25,000 кадров/сек
    Стандарт вещания : Component
    Цветовое пространство : YUV
    Субдискретизация насыщенности : 4:2:0
    Битовая глубина : 8 бит
    Тип развёртки : Чересстрочная
    Порядок развёртки : Верхнее поле первое
    Бит/(Пиксели*Кадры) : 0.143
    Размер потока : 2,14 Гбайт (93%)
    Основные цвета : BT.709
    Характеристики трансфера : BT.709
    Коэффициенты матрицы : BT.709

    Аудио
    Идентификатор : 301 (0x12D)
    Идентификатор меню : 2201 (0x899)
    Формат : MPEG Audio
    Версия формата : Version 1
    Профиль формата : Layer 2
    Идентификатор кодека : 3
    Продолжительность : 41 м.
    Вид битрейта : Постоянный
    Битрейт : 192 Кбит/сек
    Каналы : 2 канала
    Частота : 48,0 КГц
    Метод сжатия : С потерями
    Задержка видео : -120 мс.
    Размер потока : 57,0 Мбайт (2%)
    Язык : English
10.0 из 10
голосов: 2
/10
/10
grab777 28-11-2015, 23:48
Информация
Посетители, находящиеся в группе Гости, не могут оставлять комментарии к данной публикации.