Панель пользователя
Регистрация

Воспользуйтесь социальными сетями для входа на https://freerutor.com

vk odnoklassniki facebook mailru yandex google
Популярное
Счетчик
Голосуй за нас
VIP на сайте
Популярное
Товары интернет магазина
загрузка...

Игра с огнём (1 сезон: 1-4 серии из 4) (2015) HDTV 1080i

Игра с огнём (1 сезон: 1-4 серии из 4) (2015) HDTV 1080i
Участники торрент обмена
Сидов Пиров Скачали
0 0 157
Характеристика
Размер Файлы
8.20 GB
Релиз группа
Поделиться раздачей
Русские сериалы
Оригинальное наименование: Игра с огнём
Категория: Криминал, мелодрама
Произведено: Россия / Star Media
Режиссер постановщик: Наталия Бучнева
В главных ролях: Анна Арефьева, Василий Щипицын, Владимир Кочуров, Светлана Щедрина, Артем Бордовский, Александр Ершов, Андрей Терентьев, Алексей Шаблюк, Иван Забашта, Александр Большаков
Краткое описание: Марина работает кассиром в филиале банка, встречается со своим коллегой, и ведет самую обычную, скучную жизнь. Ей хочется приключений, опасностей, экстрима, но каждый день похож на другой, и ничего интересного с ней не происходит… До тех пор пока люди в масках не захватывают банк, и Марина в числе остальных сотрудников попадает в заложницы. Она влюбляется в главаря бандитов, хоть и не видит под маской его лица…
  • Видео данные: MPEG-TS, ~ 7000 Кбит/с, 1920x1080
    Аудио данные: Русский (MP2, 2 ch, 192 Кбит/с)
    Перевод: Оригинал
    Продолжительность: 4 x ~ 00:43:00
    Игра с огнём (1 сезон: 1-4 серии из 4) (2015) HDTV 1080i
  • Игра с огнём (1 сезон: 1-4 серии из 4) (2015) HDTV 1080i Игра с огнём (1 сезон: 1-4 серии из 4) (2015) HDTV 1080i Игра с огнём (1 сезон: 1-4 серии из 4) (2015) HDTV 1080i
  • Общее
    Идентификатор : 1 (0x1)
    Полное имя : F:\Фильмы торренты\Igra.s.ognem.2014.HDTV.(1080i).MediaClub\Igra.s.ognem.(01.seriya.iz.04).2014.HDTV.(1080i).MediaClub.ts
    Формат : MPEG-TS
    Размер файла : 2,03 Гбайт
    Продолжительность : 43 м.
    Режим общего битрейта : Переменный
    Общий поток : 6678 Кбит/сек

    Видео
    Идентификатор : 201 (0xC9)
    Идентификатор меню : 2201 (0x899)
    Формат : AVC
    Формат/Информация : Advanced Video Codec
    Профиль формата : Main@L4.0
    Параметр CABAC формата : Да
    Параметр ReFrames формата : 4 кадра
    Идентификатор кодека : 27
    Продолжительность : 43 м.
    Битрейт : 6154 Кбит/сек
    Ширина : 1920 пикселей
    Высота : 1080 пикселей
    Соотношение сторон : 16:9
    Частота кадров : 25,000 кадров/сек
    Стандарт вещания : Component
    Цветовое пространство : YUV
    Субдискретизация насыщенности : 4:2:0
    Битовая глубина : 8 бит
    Тип развёртки : Чересстрочная
    Порядок развёртки : Верхнее поле первое
    Бит/(Пиксели*Кадры) : 0.119
    Размер потока : 1,87 Гбайт (92%)
    Основные цвета : BT.709
    Характеристики трансфера : BT.709
    Коэффициенты матрицы : BT.709

    Аудио
    Идентификатор : 301 (0x12D)
    Идентификатор меню : 2201 (0x899)
    Формат : MPEG Audio
    Версия формата : Version 1
    Профиль формата : Layer 2
    Идентификатор кодека : 3
    Продолжительность : 43 м.
    Вид битрейта : Постоянный
    Битрейт : 192 Кбит/сек
    Каналы : 2 канала
    Частота : 48,0 КГц
    Метод сжатия : С потерями
    Задержка видео : -40 мс.
    Размер потока : 59,8 Мбайт (3%)
    Язык : English
10.0 из 10
голосов: 1
/10
/10
grab777 28-11-2015, 02:43
Информация
Посетители, находящиеся в группе Гости, не могут оставлять комментарии к данной публикации.