Панель пользователя
Регистрация

Воспользуйтесь социальными сетями для входа на https://freerutor.com

vk odnoklassniki facebook mailru yandex google
Популярное
Счетчик
Голосуй за нас
VIP на сайте
Популярное
Товары интернет магазина
загрузка...

Папаши / Dads (1 сезон 1-18 серия из 18) (2013-2014) WEB-DL 720p | Несмертельное оружие

Папаши / Dads (1 сезон 1-18 серия из 18) (2013-2014) WEB-DL 720p | Несмертельное оружие
Участники торрент обмена
Сидов Пиров Скачали
1 0 16
Характеристика
Размер Файлы
13.17 GB
Поделиться раздачей
Заруб. сериалы (720P,1080P)
Наименование: Папаши
Оригинальное наименование: Dads
Категория: Комедия
Произведено: США / 20th Century Fox Television, Fuzzy Door Productions
Режиссер постановщик: Марк Сендроуски, Джерри Коэн, Дэвид Трейнер
В главных ролях: Сет Грин, Джованни Рибизи, Мартин Мулл, Питер Ригерт, Ванесса Лаше, Бренда Сонг, Тонита Кастро, Дерек Бланкеншип, Кристофер Дарга, Стивен Сокс
Краткое описание: История о двух друзьях детства, которые уже вроде бы не молодые и довольно успешные. Но однажды в их жизни все переворачивается, когда к ним приезжают их отцы…
  • Видео данные: MPEG-4 AVC, 4153 Кбит/с, 1280x718
    Аудио данные: Русский, английский (AC3, 6 ch, 384 Кбит/с)
    Перевод: Профессиональный многоголосый [Несмертельное оружие]
    Продолжительность: 18 x ~ 00:22:00
  • Папаши / Dads (1 сезон 1-18 серия из 18) (2013-2014) WEB-DL 720p | Несмертельное оружие Папаши / Dads (1 сезон 1-18 серия из 18) (2013-2014) WEB-DL 720p | Несмертельное оружие Папаши / Dads (1 сезон 1-18 серия из 18) (2013-2014) WEB-DL 720p | Несмертельное оружие
  • General
    Unique ID : 229204766199552914994044293138785886760 (0xAC6F3B7585BBAC5B8CC87653CCD9E228)
    Complete name : Dads.S01E01.Pilot.WEB-DL.720p.H.264.RUS.-Nesmertelnoe.oruzhie.mkv
    Format : Matroska
    Format version : Version 2
    File size : 793 MiB
    Duration : 22mn 5s
    Overall bit rate : 5 021 Kbps
    Movie name : Папаши / Сезон: 1 / Эпизод: 01 - Пилот [Релиз от: Несмертельное оружие]
    Encoded date : UTC 2013-09-21 20:51:12
    Writing application : mkvmerge v5.2.1 ('A Far Off Place') built on Jan 2 2012 23:21:10
    Writing library : libebml v1.2.3 + libmatroska v1.3.0

    Video
    ID : 1
    Format : AVC
    Format/Info : Advanced Video Codec
    Format profile : High@L3.1
    Format settings, CABAC : No
    Format settings, ReFrames : 2 frames
    Codec ID : V_MPEG4/ISO/AVC
    Duration : 22mn 5s
    Bit rate : 4 153 Kbps
    Width : 1 280 pixels
    Height : 718 pixels
    Display aspect ratio : 16:9
    Frame rate mode : Constant
    Frame rate : 23.976 fps
    Color space : YUV
    Chroma subsampling : 4:2:0
    Bit depth : 8 bits
    Scan type : Progressive
    Bits/(Pixel*Frame) : 0.188
    Stream size : 656 MiB (83%)
    Language : English
    Default : Yes
    Forced : No
    Color primaries : BT.709
    Transfer characteristics : BT.709
    Matrix coefficients : BT.709

    Audio #1
    ID : 2
    Format : AC-3
    Format/Info : Audio Coding 3
    Mode extension : CM (complete main)
    Format settings, Endianness : Big
    Codec ID : A_AC3
    Duration : 22mn 5s
    Bit rate mode : Constant
    Bit rate : 384 Kbps
    Channel(s) : 6 channels
    Channel positions : Front: L C R, Side: L R, LFE
    Sampling rate : 48.0 KHz
    Bit depth : 16 bits
    Compression mode : Lossy
    Stream size : 60.7 MiB (8%)
    Title : MVO (Несмертельное оружие)
    Language : Russian
    Default : Yes
    Forced : No

    Audio #2
    ID : 3
    Format : AC-3
    Format/Info : Audio Coding 3
    Mode extension : CM (complete main)
    Format settings, Endianness : Big
    Codec ID : A_AC3
    Duration : 22mn 5s
    Bit rate mode : Constant
    Bit rate : 384 Kbps
    Channel(s) : 6 channels
    Channel positions : Front: L C R, Side: L R, LFE
    Sampling rate : 48.0 KHz
    Bit depth : 16 bits
    Compression mode : Lossy
    Delay relative to video : 10ms
    Stream size : 60.7 MiB (8%)
    Title : Original
    Language : English
    Default : No
    Forced : No
7.0 из 10
голосов: 3
/10
/10
grab777 25-11-2015, 05:18
Информация
Посетители, находящиеся в группе Гости, не могут оставлять комментарии к данной публикации.