Панель пользователя
Регистрация

Воспользуйтесь социальными сетями для входа на https://freerutor.com

vk odnoklassniki facebook mailru yandex google
Популярное
Счетчик
Голосуй за нас
VIP на сайте
Популярное
Товары интернет магазина
загрузка...

Братец Баджранги / Bajrangi Bhaijaan (2015) BDRip 1080p

Братец Баджранги / Bajrangi Bhaijaan (2015) BDRip 1080p
Участники торрент обмена
Сидов Пиров Скачали
0 0 175
Характеристика
Размер Файлы
14.74 GB
Поделиться раздачей
Фильмы (720,1080,Blu-Ray)
Наименование: Братец Баджранги
Оригинальное наименование: Bajrangi Bhaijaan
Категория: Драма, комедия
Произведено: Индия / Eros International, Kabir Khan Films, Rockline Entertainment, Salman Khan Films
Режиссер постановщик: Кабир Кхан
В главных ролях: Салман Кхан, Карина Капур, Харшаали Мальхотра, Навазуддин Сиддики, Ом Пури, Шарат Саксена, Мехер Видж, Наджим Кхан, Камлеш Гилл, Аднан Сами, Раджеш Шарма
Краткое описание: Фильм рассказывает о благородном мужчине, который пытается помочь немой пакистанской девочке вернуться на родину, к ее семье.
  • Видео данные: MPEG-4 AVC, 12.0 Mбит/с, 1920x816
    Аудио данные: Русский, хинди (AC3, 6 ch, 640 Кбит/с)
    Перевод: Любительский многоголосый
    Субтитры: Русские, английские
    Продолжительность: 02:39:12
  • Братец Баджранги / Bajrangi Bhaijaan (2015) BDRip 1080p Братец Баджранги / Bajrangi Bhaijaan (2015) BDRip 1080p Братец Баджранги / Bajrangi Bhaijaan (2015) BDRip 1080p
  • Общее
    Уникальный идентификатор : 183219204465872622589973840995810916239 (0x89D6BC37D236F0908B547E0BB8D9B78F)
    Полное имя : J:\Фильмы\Фантастика\Temp\Bajrangi.Bhaijaan.2015.BDRip.Rus.Original.ICG.mkv\Bajrangi.Bhaijaan.2015.BDRip.HQ.1080p.Rus.Original.ICG.mkv
    Формат : Matroska
    Версия формата : Version 4 / Version 2
    Размер файла : 14,7 Гбайт
    Продолжительность : 2 ч. 39 м.
    Режим общего битрейта : Переменный
    Общий поток : 13,3 Мбит/сек
    Дата кодирования : UTC 2015-11-07 10:12:06
    Программа кодирования : mkvmerge v6.6.0 ('The Edge Of The In Between') built on Dec 1 2013 17:55:00
    Библиотека кодирования : libebml v1.3.0 + libmatroska v1.4.1
    DURATION : 02:35:49.958000000
    NUMBER_OF_FRAMES : 2215
    NUMBER_OF_BYTES : 62129
    _STATISTICS_WRITING_APP : mkvmerge v7.7.0 ('Six Voices') 32bit built on Feb 28 2015 23:23:00
    _STATISTICS_WRITING_DATE_UTC : 2015-10-02 15:53:53
    _STATISTICS_TAGS : BPS DURATION NUMBER_OF_FRAMES NUMBER_OF_BYTES

    Видео
    Идентификатор : 1
    Формат : AVC
    Формат/Информация : Advanced Video Codec
    Профиль формата : High@L4.1
    Параметр CABAC формата : Да
    Параметр ReFrames формата : 4 кадра
    Идентификатор кодека : V_MPEG4/ISO/AVC
    Продолжительность : 2 ч. 39 м.
    Вид битрейта : Переменный
    Битрейт : 12,0 Мбит/сек
    Максимальный битрейт : 40,0 Мбит/сек
    Ширина : 1920 пикселей
    Высота : 816 пикселей
    Соотношение сторон : 2,35:1
    Режим частоты кадров : Постоянный
    Частота кадров : 24,000 кадра/сек
    Цветовое пространство : YUV
    Субдискретизация насыщенности : 4:2:0
    Битовая глубина : 8 бит
    Тип развёртки : Прогрессивная
    Бит/(Пиксели*Кадры) : 0.318
    Размер потока : 13,0 Гбайт (88%)
    Заголовок : FrostSchutz DrC
    Библиотека кодирования : x264 core 146 r2538 121396c
    Настройки программы : cabac=1 / ref=5 / deblock=1:0:0 / analyse=0x3:0x113 / me=umh / subme=8 / psy=1 / psy_rd=1.00:0.00 / mixed_ref=1 / me_range=16 / chroma_me=1 / trellis=1 / 8x8dct=1 / cqm=0 / deadzone=21,11 / fast_pskip=1 / chroma_qp_offset=-2 / threads=12 / lookahead_threads=2 / sliced_threads=0 / slices=4 / nr=0 / decimate=1 / interlaced=0 / bluray_compat=1 / constrained_intra=0 / bframes=3 / b_pyramid=1 / b_adapt=2 / b_bias=0 / direct=3 / weightb=1 / open_gop=1 / weightp=1 / keyint=24 / keyint_min=1 / scenecut=40 / intra_refresh=0 / rc_lookahead=24 / rc=2pass / mbtree=1 / bitrate=11968 / ratetol=1.0 / qcomp=0.60 / qpmin=0 / qpmax=69 / qpstep=4 / cplxblur=20.0 / qblur=0.5 / vbv_maxrate=40000 / vbv_bufsize=30000 / nal_hrd=vbr / filler=0 / ip_ratio=1.40 / aq=1:1.00
    Default : Да
    Forced : Нет

    Аудио #1
    Идентификатор : 2
    Формат : AC-3
    Формат/Информация : Audio Coding 3
    Расширение режима : CM (complete main)
    Параметр Endianness формата : Big
    Идентификатор кодека : A_AC3
    Продолжительность : 2 ч. 39 м.
    Вид битрейта : Постоянный
    Битрейт : 640 Кбит/сек
    Каналы : 6 каналов
    Расположение каналов : Front: L C R, Side: L R, LFE
    Частота : 48,0 КГц
    Битовая глубина : 16 бит
    Метод сжатия : С потерями
    Размер потока : 729 Мбайт (5%)
    Заголовок : ICG
    Язык : Russian
    Default : Да
    Forced : Да

    Аудио #2
    Идентификатор : 3
    Формат : AC-3
    Формат/Информация : Audio Coding 3
    Расширение режима : CM (complete main)
    Параметр Endianness формата : Big
    Идентификатор кодека : A_AC3
    Продолжительность : 2 ч. 39 м.
    Вид битрейта : Постоянный
    Битрейт : 640 Кбит/сек
    Каналы : 6 каналов
    Расположение каналов : Front: L C R, Side: L R, LFE
    Частота : 48,0 КГц
    Битовая глубина : 16 бит
    Метод сжатия : С потерями
    Размер потока : 729 Мбайт (5%)
    Язык : Hindi
    Default : Нет
    Forced : Нет

    Текст #1
    Идентификатор : 4
    Формат : UTF-8
    Идентификатор кодека : S_TEXT/UTF8
    Идентификатор кодека/Информация : UTF-8 Plain Text
    Заголовок : На песни
    Язык : Russian
    Default : Да
    Forced : Да

    Текст #2
    Идентификатор : 5
    Формат : UTF-8
    Идентификатор кодека : S_TEXT/UTF8
    Идентификатор кодека/Информация : UTF-8 Plain Text
    Заголовок : Полные
    Язык : Russian
    Default : Нет
    Forced : Нет

    Текст #3
    Идентификатор : 6
    Формат : UTF-8
    Идентификатор кодека : S_TEXT/UTF8
    Идентификатор кодека/Информация : UTF-8 Plain Text
    Язык : English
    Default : Нет
    Forced : Нет

    Меню
    00:00:00.000 : en:00:00:00.000
    00:04:31.583 : en:00:04:31.583
    00:08:13.667 : en:00:08:13.667
    00:10:47.000 : en:00:10:47.000
    00:17:02.000 : en:00:17:02.000
    00:21:22.708 : en:00:21:22.708
    00:26:11.375 : en:00:26:11.375
    00:31:48.333 : en:00:31:48.333
    00:36:52.458 : en:00:36:52.458
    00:40:44.000 : en:00:40:44.000
    00:50:12.500 : en:00:50:12.500
    00:54:23.125 : en:00:54:23.125
    01:02:24.833 : en:01:02:24.833
    01:08:43.542 : en:01:08:43.542
    01:15:27.000 : en:01:15:27.000
    01:16:57.000 : en:01:16:57.000
    01:27:38.250 : en:01:27:38.250
    01:32:01.542 : en:01:32:01.542
    01:46:03.583 : en:01:46:03.583
    01:57:27.333 : en:01:57:27.333
    02:00:53.167 : en:02:00:53.167
    02:03:47.417 : en:02:03:47.417
    02:11:11.833 : en:02:11:11.833
    02:14:19.500 : en:02:14:19.500
    02:16:41.833 : en:02:16:41.833
    02:23:27.833 : en:02:23:27.833
    02:35:19.417 : en:02:35:19.417
9.3 из 10
голосов: 3
/10
/10
grab777 24-11-2015, 23:57
Информация
Посетители, находящиеся в группе Гости, не могут оставлять комментарии к данной публикации.