Панель пользователя
Регистрация

Воспользуйтесь социальными сетями для входа на https://freerutor.com

vk odnoklassniki facebook mailru yandex google
Популярное
Счетчик
Голосуй за нас
VIP на сайте
Популярное
Товары интернет магазина
загрузка...

Моя мама / Mia madre (2015) BDRip 1080p

Моя мама / Mia madre (2015) BDRip 1080p
Участники торрент обмена
Сидов Пиров Скачали
0 0 120
Характеристика
Размер Файлы
11.10 GB
Поделиться раздачей
Фильмы (720,1080,Blu-Ray)
Наименование: Моя мама
Оригинальное наименование: Mia madre
Произведено: Италия, Франция
Категория: драма
Режиссер постановщик: Нанни Моретти
В главных ролях: Маргерита Буй, Джон Туртурро, Джулия Лаццарини, Нанни Моретти, Беатрис Манчини, Стефано Аббати, Энрико Ианнелло, Анна Беллато, Тони Лаудадио, Лоренцо Джоиелли
Краткое описание: Маргарита снимает новый фильм, возлагая большие надежды на приглашенного голливудского актера, однако на поверку тот оказывается чудаковатым щеглом, который не может запомнить ни строчки сценария, зато веселит всю съемочную группу. Кажется, все летит в тар-тарары: Маргарита уходит от партнера, с дочерью не ладится, и даже образцово-показательный брак испытывает кризис. В этой суматохе из жизни тихо уходит мама Маргариты, мудрая остроумная преподавательница латыни. С удивлением Маргарита обнаруживает, что жизнь ее мамы была полна вещей, о которых дочь и не подозревала...
  • Видео данные: MPEG-4 AVC,13700 kb/s, 1920x1040
    Аудио данные: Russian: AC3, 192 kb/s (2 ch) / Italian: AC3, 640 kb/s (6 ch)
    Перевод: Профессиональный многоголосый [Официальный звук]
    Продолжительность: 01:47:10
    Субтитры: Английские
  • Моя мама / Mia madre (2015) BDRip 1080p Моя мама / Mia madre (2015) BDRip 1080p Моя мама / Mia madre (2015) BDRip 1080p
  • General
    Unique ID : 239877858347576416830232778000287358116 (0xB476CB87A820A9D7905467E354DF5CA4)
    Complete name : /media/sdb1/home/immortalseed/Torrents/Moja.mama.2015.P.BDRip.1080p.mkv
    Format : Matroska
    Format version : Version 4 / Version 2
    File size : 11.1 GiB
    Duration : 1h 47mn
    Overall bit rate : 14.8 Mbps
    Encoded date : UTC 2015-11-24 16:25:35
    Writing application : mkvmerge v8.3.0 ('Over the Horizon') 64bit
    Writing library : libebml v1.3.1 + libmatroska v1.4.2
    DURATION : 01:47:11.200000000
    NUMBER_OF_FRAMES : 200975
    NUMBER_OF_BYTES : 154348800
    _STATISTICS_WRITING_APP : mkvmerge v8.3.0 ('Over the Horizon') 64bit
    _STATISTICS_WRITING_DATE_UTC : 2015-11-24 16:25:35
    _STATISTICS_TAGS : BPS DURATION NUMBER_OF_FRAMES NUMBER_OF_BYTES

    Video
    ID : 1
    Format : AVC
    Format/Info : Advanced Video Codec
    Format profile : High@L4.1
    Format settings, CABAC : Yes
    Format settings, ReFrames : 4 frames
    Codec ID : V_MPEG4/ISO/AVC
    Duration : 1h 47mn
    Bit rate : 13.7 Mbps
    Width : 1 920 pixels
    Height : 1 040 pixels
    Display aspect ratio : 1.85:1
    Frame rate mode : Constant
    Frame rate : 23.976 fps
    Color space : YUV
    Chroma subsampling : 4:2:0
    Bit depth : 8 bits
    Scan type : Progressive
    Bits/(Pixel*Frame) : 0.286
    Stream size : 10.3 GiB (92%)
    Writing library : x264 core 146 r2538 121396c
    Encoding settings : cabac=1 / ref=4 / deblock=1:-3:-3 / analyse=0x3:0x113 / me=umh / subme=10 / psy=1 / psy_rd=1.00:0.00 / mixed_ref=1 / me_range=24 / chroma_me=1 / trellis=2 / 8x8dct=1 / cqm=0 / deadzone=21,11 / fast_pskip=1 / chroma_qp_offset=-2 / threads=6 / lookahead_threads=1 / sliced_threads=0 / nr=0 / decimate=1 / interlaced=0 / bluray_compat=0 / constrained_intra=0 / bframes=8 / b_pyramid=2 / b_adapt=2 / b_bias=0 / direct=1 / weightb=1 / open_gop=0 / weightp=2 / keyint=250 / keyint_min=25 / scenecut=40 / intra_refresh=0 / rc_lookahead=60 / rc=crf / mbtree=0 / crf=15.0 / qcomp=0.60 / qpmin=0 / qpmax=69 / qpstep=4 / vbv_maxrate=62500 / vbv_bufsize=78125 / crf_max=0.0 / nal_hrd=none / filler=0 / ip_ratio=1.40 / pb_ratio=1.30 / aq=1:0.80
    Default : Yes
    Forced : No

    Audio #1
    ID : 2
    Format : AC-3
    Format/Info : Audio Coding 3
    Mode extension : CM (complete main)
    Format settings, Endianness : Big
    Codec ID : A_AC3
    Duration : 1h 47mn
    Bit rate mode : Constant
    Bit rate : 192 Kbps
    Channel(s) : 2 channels
    Channel positions : Front: L R
    Sampling rate : 48.0 KHz
    Bit depth : 16 bits
    Compression mode : Lossy
    Stream size : 147 MiB (1%)
    Language : Russian
    Default : Yes
    Forced : No

    Audio #2
    ID : 3
    Format : AC-3
    Format/Info : Audio Coding 3
    Mode extension : CM (complete main)
    Format settings, Endianness : Big
    Codec ID : A_AC3
    Duration : 1h 47mn
    Bit rate mode : Constant
    Bit rate : 640 Kbps
    Channel(s) : 6 channels
    Channel positions : Front: L C R, Side: L R, LFE
    Sampling rate : 48.0 KHz
    Bit depth : 16 bits
    Compression mode : Lossy
    Stream size : 491 MiB (4%)
    Language : Italian
    Default : No
    Forced : No

    Text
    ID : 4
    Format : UTF-8
    Codec ID : S_TEXT/UTF8
    Codec ID/Info : UTF-8 Plain Text
    Language : English
    Default : Yes
    Forced : No

    Menu
    00:00:00.000 : en:Chapter 01
    00:06:10.203 : en:Chapter 02
    00:16:13.639 : en:Chapter 03
    00:21:02.636 : en:Chapter 04
    00:30:31.329 : en:Chapter 05
    00:33:05.650 : en:Chapter 06
    00:40:17.081 : en:Chapter 07
    00:42:44.937 : en:Chapter 08
    00:49:01.021 : en:Chapter 09
    00:56:14.079 : en:Chapter 10
    01:10:28.891 : en:Chapter 11
    01:16:03.267 : en:Chapter 12
    01:23:38.138 : en:Chapter 13
    01:28:37.229 : en:Chapter 14
    01:35:48.534 : en:Chapter 15
    01:40:53.631 : en:Chapter 16
10.0 из 10
голосов: 1
/10
/10
karta 24-11-2015, 21:15
Информация
Посетители, находящиеся в группе Гости, не могут оставлять комментарии к данной публикации.