Панель пользователя
Регистрация

Воспользуйтесь социальными сетями для входа на https://freerutor.com

vk odnoklassniki facebook mailru yandex google
Популярное
Счетчик
Голосуй за нас
VIP на сайте
Популярное
Товары интернет магазина
загрузка...

Алла в поисках Аллы (2015) HDTV 1080i

Алла в поисках Аллы (2015) HDTV 1080i
Участники торрент обмена
Сидов Пиров Скачали
0 0 608
Характеристика
Размер Файлы
5.32 GB
Поделиться раздачей
Фильмы (720,1080,Blu-Ray)
Оригинальное наименование: Алла в поисках Аллы
Категория: Мелодрама
Произведено: Россия / Паламеда Продакшн
Режиссер постановщик: Алексей Карелин
В главных ролях: Юлия Жигалина, Олег Алмазов, Максим Кречетов, Марина Денисова, Андрей Карако, Иван Павлов, Олег Ткачёв, Алла Волынец
Краткое описание: Успешная деловая женщина Алла Новикова впервые после окончания школы решила сходить на встречу одноклассников. Очнулась она на помойке на заднем дворе ресторана. Неприятности этим не ограничились, так как Алла упорно не могла вспомнить кто она такая, где живет, чем занимается. Добрый самаритянин Андрей начинает помогать растерявшейся женщине и сразу обнаруживает, что у этой дамочки несносный характер. Память поэтапно возвращается к Алле. С помощью Андрея ей удается вспомнить всех своих мужей, найти свой офис, свою квартиру. Но, главное, ей удается новыми глазами взглянуть на свою прежнюю жизнь и счесть ее далекой от идеала…
  • Видео данные: MPEG-TS, 7866 Кбит/с, 1920x1080
    Аудио данные: MP2, 2 ch, 192 Кбит/с
    Перевод: Оригинал
    Продолжительность: 01:29:47
  • Алла в поисках Аллы (2015) HDTV 1080i Алла в поисках Аллы (2015) HDTV 1080i Алла в поисках Аллы (2015) HDTV 1080i
  • General
    ID : 1 (0x1)
    Complete name : Alla.v.poiskakh.Ally.2015.HDTV.1080i.ts
    Format : MPEG-TS
    File size : 5.32 GiB
    Duration : 1h 29mn
    Overall bit rate mode : Variable
    Overall bit rate : 8 479 Kbps

    Video
    ID : 2911 (0xB5F)
    Menu ID : 1009 (0x3F1)
    Format : AVC
    Format/Info : Advanced Video Codec
    Format profile : High@L4
    Format settings, CABAC : Yes
    Format settings, ReFrames : 4 frames
    Codec ID : 27
    Duration : 1h 29mn
    Bit rate : 7 866 Kbps
    Width : 1 920 pixels
    Height : 1 080 pixels
    Display aspect ratio : 16:9
    Frame rate : 25.000 fps
    Color space : YUV
    Chroma subsampling : 4:2:0
    Bit depth : 8 bits
    Scan type : MBAFF
    Scan order : Top Field First
    Bits/(Pixel*Frame) : 0.152
    Stream size : 4.93 GiB (93%)

    Audio
    ID : 2912 (0xB60)
    Menu ID : 1009 (0x3F1)
    Format : MPEG Audio
    Format version : Version 1
    Format profile : Layer 2
    Codec ID : 3
    Duration : 1h 29mn
    Bit rate mode : Constant
    Bit rate : 192 Kbps
    Channel(s) : 2 channels
    Sampling rate : 48.0 KHz
    Compression mode : Lossy
    Stream size : 123 MiB (2%)
    Language : Russian
10.0 из 10
голосов: 3
/10
/10
grab777 23-11-2015, 01:59
Информация
Посетители, находящиеся в группе Гости, не могут оставлять комментарии к данной публикации.