Панель пользователя
Регистрация

Воспользуйтесь социальными сетями для входа на https://freerutor.com

vk odnoklassniki facebook mailru yandex google
Популярное
Счетчик
Голосуй за нас
VIP на сайте
Популярное
Товары интернет магазина
загрузка...

Лучший бар в Америке / The Best Bar in America (2013) HDTVRip 720p

Лучший бар в Америке / The Best Bar in America (2013)  HDTVRip 720p
Участники торрент обмена
Сидов Пиров Скачали
4 0 1593
Характеристика
Размер Файлы
1.32 GB
Поделиться раздачей
Фильмы (720,1080,Blu-Ray)
Наименование: Лучший бар в Америке
Оригинальное наименование: The Best Bar in America
Категория: Приключения, вестерн
Произведено: США /
Режиссер постановщик: Эрик Ристау, Дэймон Ристау
В главных ролях: Дэвид Экройд, Ли Риззо, Эндрю Риззо, Грегори Т. Коллетт, Моника Ланье, Роджер Хедден, Стив Ходжсон, Уолт Хефнер
Краткое описание: Приятный фильм с незамысловатым сюжетом о свободе и поиске смысла. Для тех, кто предпочитает запах асфальта, урчание двигателя, хорошие ботинки и бутылку виски...* С датировкой фильма возникли проблемы: разные года в Кинопоиске и на IMDB - 2009г и 2014г., хотя один и тот же фильм. Ориентировался по постеру.
  • Видео данные: MPEG-4 AVC, 1980 Кбит/с, 1280x720
    Аудио данные: AAC, 2 ch, 152-192 кбит/с
    Перевод: Любительский многоголосый [Victory Films]
    Продолжительность: 01:28:28
  • Лучший бар в Америке / The Best Bar in America (2013)  HDTVRip 720p Лучший бар в Америке / The Best Bar in America (2013)  HDTVRip 720p Лучший бар в Америке / The Best Bar in America (2013)  HDTVRip 720p
  • Общее
    Полное имя : E:\Раздача-BDRip\The.Best.Bar.in.America_2013.HDRip.mp4
    Формат : MPEG-4
    Профиль формата : Base Media
    Идентификатор кодека : isom
    Размер файла : 1,32 Гбайт
    Продолжительность : 1 ч. 28 м.
    Режим общего битрейта : Переменный
    Общий поток : 2138 Кбит/сек
    Программа кодирования : Lavf56.25.101

    Видео
    Идентификатор : 1
    Формат : AVC
    Формат/Информация : Advanced Video Codec
    Профиль формата : High@L3.1
    Параметр CABAC формата : Да
    Параметр ReFrames формата : 4 кадра
    Параметр GOP формата : M=4, N=24
    Идентификатор кодека : avc1
    Идентификатор кодека/Информация : Advanced Video Coding
    Продолжительность : 1 ч. 28 м.
    Битрейт : 1980 Кбит/сек
    Ширина : 1280 пикселей
    Высота : 720 пикселей
    Соотношение сторон : 16:9
    Режим частоты кадров : Постоянный
    Частота кадров : 24,000 кадра/сек
    Цветовое пространство : YUV
    Субдискретизация насыщенности : 4:2:0
    Битовая глубина : 8 бит
    Тип развёртки : Прогрессивная
    Бит/(Пиксели*Кадры) : 0.090
    Размер потока : 1,22 Гбайт (93%)
    Библиотека кодирования : x264 core 142
    Настройки программы : cabac=1 / ref=3 / deblock=1:0:0 / analyse=0x3:0x113 / me=hex / subme=7 / psy=1 / psy_rd=1.00:0.00 / mixed_ref=1 / me_range=16 / chroma_me=1 / trellis=1 / 8x8dct=1 / cqm=0 / deadzone=21,11 / fast_pskip=1 / chroma_qp_offset=-2 / threads=4 / lookahead_threads=1 / sliced_threads=0 / nr=0 / decimate=1 / interlaced=0 / bluray_compat=0 / constrained_intra=0 / bframes=3 / b_pyramid=2 / b_adapt=1 / b_bias=0 / direct=1 / weightb=1 / open_gop=0 / weightp=2 / keyint=24 / keyint_min=2 / scenecut=40 / intra_refresh=0 / rc_lookahead=24 / rc=2pass / mbtree=1 / bitrate=1980 / ratetol=1.0 / qcomp=0.60 / qpmin=0 / qpmax=69 / qpstep=4 / cplxblur=20.0 / qblur=0.5 / ip_ratio=1.40 / aq=1:1.00

    Аудио
    Идентификатор : 2
    Формат : AAC
    Формат/Информация : Advanced Audio Codec
    Профиль формата : LC
    Идентификатор кодека : 40
    Продолжительность : 1 ч. 28 м.
    Вид битрейта : Переменный
    Битрейт : 152 Кбит/сек
    Максимальный битрейт : 192 Кбит/сек
    Каналы : 2 канала
    Расположение каналов : Front: L R
    Частота : 44,1 КГц
    Метод сжатия : С потерями
    Размер потока : 96,0 Мбайт (7%)
8.5 из 10
голосов: 6
/10
/10
grab777 22-11-2015, 02:07
Информация
Посетители, находящиеся в группе Гости, не могут оставлять комментарии к данной публикации.