Панель пользователя
Регистрация

Воспользуйтесь социальными сетями для входа на https://freerutor.com

vk odnoklassniki facebook mailru yandex google
Популярное
Счетчик
Голосуй за нас
VIP на сайте
Популярное
Товары интернет магазина
загрузка...

Следствие вели - Влюбленный циркач (эфир от 21.11.2015) HDTV 1080i

Следствие вели - Влюбленный циркач (эфир от 21.11.2015) HDTV 1080i
Участники торрент обмена
Сидов Пиров Скачали
0 0 22
Характеристика
Размер Файлы
2.35 GB
Релиз группа
Поделиться раздачей
Документальный
Оригинальное наименование: Следствие вели... с Леонидом Каневским
Категория: Документальный, детектив, криминал, расследование
Произведено: Россия / НТВ
Режиссер постановщик: Игорь Ромащенко, Борис Фёдоров
Ведущий: Леонид Каневский
Краткое описание: 1968 год. В подмосковном Воскресенске — ЧП: с крыши автобуса внезапно падает убитая девушка. Кто она такая? Как очутилась в столь необычном месте? Выясняется: жительница одной из деревень искала спутника жизни по объявлениям о знакомстве. Неужели ее избранник оказался маньяком? Проходит немного времени, и на окраине города находят еще одно тело. Почерк преступника абсолютно тот же. Исчезают последние сомнения: речь идет о серийном убийце. Неизвестного отличает удивительная физическая сила. Кто он такой? Спортсмен? Или, может, цирковой силач?
  • Видео данные: MPEG-4 AVC, 8479 Кбит/с, 1920x1080
    Аудио данные: Русский (MP2, 2 ch, 192 Кбит/с)
    Перевод: Оригинал
    Продолжительность: 00:39:39
  • Следствие вели - Влюбленный циркач (эфир от 21.11.2015) HDTV 1080i Следствие вели - Влюбленный циркач (эфир от 21.11.2015) HDTV 1080i Следствие вели - Влюбленный циркач (эфир от 21.11.2015) HDTV 1080i
  • Общее
    Идентификатор : 1 (0x1)
    Полное имя : F:\Фильмы торренты\Sledstvie.veli.(2015.21.11).2015.HDTV.(1080i).MediaClub.ts
    Формат : MPEG-TS
    Размер файла : 2,35 Гбайт
    Продолжительность : 39 м.
    Режим общего битрейта : Переменный
    Общий поток : 8479 Кбит/сек

    Видео
    Идентификатор : 901 (0x385)
    Идентификатор меню : 90 (0x5A)
    Формат : AVC
    Формат/Информация : Advanced Video Codec
    Профиль формата : Main@L4.0
    Параметр CABAC формата : Да
    Параметр ReFrames формата : 2 кадра
    Параметр GOP формата : M=3, N=30
    Идентификатор кодека : 27
    Продолжительность : 39 м.
    Битрейт : 7866 Кбит/сек
    Ширина : 1920 пикселей
    Высота : 1080 пикселей
    Соотношение сторон : 16:9
    Частота кадров : 25,000 кадров/сек
    Цветовое пространство : YUV
    Субдискретизация насыщенности : 4:2:0
    Битовая глубина : 8 бит
    Тип развёртки : MBAFF
    Бит/(Пиксели*Кадры) : 0.152
    Размер потока : 2,18 Гбайт (93%)
    Основные цвета : BT.709
    Характеристики трансфера : BT.709
    Коэффициенты матрицы : BT.709

    Аудио
    Идентификатор : 902 (0x386)
    Идентификатор меню : 90 (0x5A)
    Формат : MPEG Audio
    Версия формата : Version 1
    Профиль формата : Layer 2
    Идентификатор кодека : 3
    Продолжительность : 39 м.
    Вид битрейта : Постоянный
    Битрейт : 192 Кбит/сек
    Каналы : 2 канала
    Частота : 48,0 КГц
    Метод сжатия : С потерями
    Размер потока : 54,5 Мбайт (2%)
    Язык : Russian
10.0 из 10
голосов: 2
/10
/10
grab777 21-11-2015, 20:20
Информация
Посетители, находящиеся в группе Гости, не могут оставлять комментарии к данной публикации.