Панель пользователя
Регистрация

Воспользуйтесь социальными сетями для входа на https://freerutor.com

vk odnoklassniki facebook mailru yandex google
Популярное
Счетчик
Голосуй за нас
VIP на сайте
Популярное
Товары интернет магазина
загрузка...

Семейка Джонсов / The Joneses (2010) BDRip 720p

Семейка Джонсов / The Joneses (2010) BDRip 720p
Участники торрент обмена
Сидов Пиров Скачали
0 0 602
Характеристика
Размер Файлы
3.35 GB
Поделиться раздачей
Фильмы (720,1080,Blu-Ray)
Наименование: Семейка Джонсов
Оригинальное наименование: The Joneses
Категория: Драма, мелодрама, комедия
Произведено: США / Echo Lake Productions (I), Joneses, The, Premiere Picture
Режиссер постановщик: Деррик Борте
В главных ролях: Дэвид Духовны, Деми Мур, Эмбер Хёрд, Бен Холлингсворт, Гэри Коул, Гленн Хедли, Лорен Хаттон, Крис Уильямс, Кристин Евангелиста, Роберт Пралго
Краткое описание: Образцово-показательная во всех отношениях семья Джонсов поселяется в маленьком городке, и сразу становится кумирами и любимчиками всех его жителей. Вот на кого хотят быть похожими все от мала до велика! Но на самом деле Джонсы — не супруги, и их дети — не настоящие. Нет, они не шпионы и не инопланетяне. Все они — просто сотрудники маркетинговой компании, нанятые и засланные в городок, чтобы рекламировать нестандартными методами «идеальный» образ жизни, а заодно и миллион товаров! Но со временем Джонсы начинают обнаруживать, что их работенка не такая простая, как казалось, а горожане — что Джонсы не такие уж идеальные, и у каждого из них найдется какой-нибудь тайный порок…
  • Видео данные: MPEG-4 AVC, 4100 Кбит/с, 1280x536
    Аудио данные: Русский, английский (AC3, 6 ch, 448 Кбит/с)
    Перевод: Дублированный
    Субтитры: Русские, английские
    Продолжительность: 01:35:55
  • Семейка Джонсов / The Joneses (2010) BDRip 720p Семейка Джонсов / The Joneses (2010) BDRip 720p Семейка Джонсов / The Joneses (2010) BDRip 720p
  • Format : Matroska
    Format version : Version 2
    File size : 3.35 GiB
    Duration : 1h 35mn
    Overall bit rate : 4 994 Kbps
    Movie name : = Семейка Джонсов / The Joneses BDRip 720p by SC Kosmos =
    Encoded date : UTC 2015-11-19 22:17:24
    Writing application : mkvmerge v3.3.0 ('Language') gebaut am Mar 24 2010 14:59:24
    Writing library : libebml v0.8.0 + libmatroska v0.9.0
    Attachment : Yes

    Video
    ID : 1
    Format : AVC
    Format/Info : Advanced Video Codec
    Format profile : High@L4.1
    Format settings, CABAC : Yes
    Format settings, ReFrames : 10 frames
    Codec ID : V_MPEG4/ISO/AVC
    Duration : 1h 35mn
    Bit rate : 4 100 Kbps
    Width : 1 280 pixels
    Height : 536 pixels
    Display aspect ratio : 2.40:1
    Frame rate : 23.976 fps
    Color space : YUV
    Chroma subsampling : 4:2:0
    Bit depth : 8 bits
    Scan type : Progressive
    Bits/(Pixel*Frame) : 0.249
    Stream size : 2.68 GiB (80%)
    Title : Семейка Джонсов / The Joneses BDRip 720p by SC Kosmos
    Writing library : x264 core 146 r2538 121396c
    Encoding settings : cabac=1 / ref=10 / deblock=1:-2:-2 / analyse=0x3:0x113 / me=umh / subme=11 / psy=1 / psy_rd=1.00:0.00 / mixed_ref=1 / me_range=32 / chroma_me=1 / trellis=2 / 8x8dct=1 / cqm=0 / deadzone=21,11 / fast_pskip=0 / chroma_qp_offset=-2 / threads=12 / lookahead_threads=3 / sliced_threads=0 / nr=0 / decimate=1 / interlaced=0 / bluray_compat=0 / constrained_intra=0 / bframes=10 / b_pyramid=2 / b_adapt=2 / b_bias=0 / direct=3 / weightb=1 / open_gop=0 / weightp=2 / keyint=240 / keyint_min=23 / scenecut=40 / intra_refresh=0 / rc_lookahead=50 / rc=2pass / mbtree=0 / bitrate=4100 / ratetol=1.0 / qcomp=0.60 / qpmin=0 / qpmax=69 / qpstep=4 / cplxblur=20.0 / qblur=0.5 / vbv_maxrate=62500 / vbv_bufsize=78125 / nal_hrd=none / filler=0 / ip_ratio=1.40 / pb_ratio=1.30 / aq=1:1.00 / zones=132386,137879,b=0.25
    Language : English
    Default : No
    Forced : No

    Audio #1
    ID : 2
    Format : AC-3
    Format/Info : Audio Coding 3
    Mode extension : CM (complete main)
    Codec ID : A_AC3
    Duration : 1h 35mn
    Bit rate mode : Constant
    Bit rate : 448 Kbps
    Channel(s) : 6 channels
    Channel positions : Front: L C R, Side: L R, LFE
    Sampling rate : 48.0 KHz
    Bit depth : 16 bits
    Compression mode : Lossy
    Stream size : 307 MiB (9%)
    Language : Russian
    Default : Yes
    Forced : Yes

    Audio #2
    ID : 3
    Format : AC-3
    Format/Info : Audio Coding 3
    Mode extension : CM (complete main)
    Codec ID : A_AC3
    Duration : 1h 35mn
    Bit rate mode : Constant
    Bit rate : 448 Kbps
    Channel(s) : 6 channels
    Channel positions : Front: L C R, Side: L R, LFE
    Sampling rate : 48.0 KHz
    Bit depth : 16 bits
    Compression mode : Lossy
    Stream size : 307 MiB (9%)
    Language : English
    Default : No
    Forced : No

    Text #1
    ID : 4
    Format : UTF-8
    Codec ID : S_TEXT/UTF8
    Codec ID/Info : UTF-8 Plain Text
    Language : Russian
    Default : No
    Forced : No

    Text #2
    ID : 5
    Format : UTF-8
    Codec ID : S_TEXT/UTF8
    Codec ID/Info : UTF-8 Plain Text
    Language : English
    Default : No
    Forced : No

    Menu
    00:00:00.000 : en:00:00:00.000
    00:03:58.905 : en:00:03:58.905
    00:08:11.741 : en:00:08:11.741
    00:12:47.725 : en:00:12:47.725
    00:17:09.570 : en:00:17:09.570
    00:23:54.683 : en:00:23:54.683
    00:33:36.723 : en:00:33:36.723
    00:38:34.270 : en:00:38:34.270
    00:43:33.819 : en:00:43:33.819
    00:51:09.608 : en:00:51:09.608
    00:55:41.296 : en:00:55:41.296
    01:00:52.648 : en:01:00:52.648
    01:06:22.061 : en:01:06:22.061
    01:13:57.933 : en:01:13:57.933
    01:18:45.595 : en:01:18:45.595
    01:25:21.699 : en:01:25:21.699
10.0 из 10
голосов: 1
/10
/10
grab777 21-11-2015, 09:42
Информация
Посетители, находящиеся в группе Гости, не могут оставлять комментарии к данной публикации.