Панель пользователя
Регистрация

Воспользуйтесь социальными сетями для входа на https://freerutor.com

vk odnoklassniki facebook mailru yandex google
Популярное
Счетчик
Голосуй за нас
VIP на сайте
Популярное
Товары интернет магазина
загрузка...

Лондонские каникулы / A Royal Night Out (2014) BDRip-AVC | Лицензия

Лондонские каникулы / A Royal Night Out (2014) BDRip-AVC | Лицензия
Участники торрент обмена
Сидов Пиров Скачали
2 0 1692
Характеристика
Размер Файлы
1.42 GB
Релиз группа
Поделиться раздачей
Фильмы (AVC)
Наименование: Лондонские каникулы
Оригинальное наименование: A Royal Night Out
Категория: Мелодрама, комедия
Произведено: Великобритания / Ecosse Films, Film i Väst, Filmgate Films, Scope Pictures
Режиссер постановщик: Джулиан Джаррольд
В главных ролях: Сара Гадон, Эмили Уотсон, Джек Рейнор, Руперт Эверетт, Бел Паули, Роджер Аллам, Джек Гордон, Анастасия Харрольд, Джек Лэски, Рут Шин
Краткое описание: Во время Дня Победы в Европе в 1945 году принцессе Маргарет и ее сестре Элизабет разрешают покинуть пределы Букингемского дворца на ночь, там они сталкиваются с романтическими приключениями и опасностью…
  • Видео данные: MPEG-4 AVC, 1704 Кбит/с, 1024x428
    Аудио данные: Русский (АС3, 6 ch, 384 Кбит/с)
    Перевод: Дублированный [iTunes]
    Субтитры: Английские
    Продолжительность: 01:37:09
  • Лондонские каникулы / A Royal Night Out (2014) BDRip-AVC | Лицензия Лондонские каникулы / A Royal Night Out (2014) BDRip-AVC | Лицензия Лондонские каникулы / A Royal Night Out (2014) BDRip-AVC | Лицензия
  • Общее
    Уникальный идентификатор : 190829318286453058118623965008644837580 (0x8F9063CC4230ED15BF51A548C1E490CC)
    Полное имя : E:\Раздача-BDRip\Londoskiye.Kanikuly.2015.RUS.BDRip.x264.-HELLYWOOD.mkv
    Формат : Matroska
    Версия формата : Version 4 / Version 2
    Размер файла : 1,42 Гбайт
    Продолжительность : 1 ч. 37 м.
    Общий поток : 2090 Кбит/сек
    Название фильма : A Royal Night Out (2015) - HELLYWOOD
    Дата кодирования : UTC 2015-09-21 18:53:12
    Программа кодирования : mkvmerge v5.9.0 ('On The Loose') built on Dec 15 2012 16:39:58
    Библиотека кодирования : libebml v1.3.0 + libmatroska v1.4.0

    Видео
    Идентификатор : 1
    Формат : AVC
    Формат/Информация : Advanced Video Codec
    Профиль формата : High@L4.1
    Параметр CABAC формата : Да
    Параметр ReFrames формата : 12 кадров
    Идентификатор кодека : V_MPEG4/ISO/AVC
    Продолжительность : 1 ч. 37 м.
    Битрейт : 1704 Кбит/сек
    Ширина : 1024 пикселя
    Высота : 428 пикселей
    Соотношение сторон : 2,40:1
    Режим частоты кадров : Постоянный
    Частота кадров : 23,976 кадра/сек
    Цветовое пространство : YUV
    Субдискретизация насыщенности : 4:2:0
    Битовая глубина : 8 бит
    Тип развёртки : Прогрессивная
    Бит/(Пиксели*Кадры) : 0.162
    Размер потока : 1,13 Гбайт (80%)
    Заголовок : potroks
    Библиотека кодирования : x264 core 148 r2597M e86f3a1
    Настройки программы : cabac=1 / ref=12 / deblock=1:-2:-2 / analyse=0x3:0x133 / me=umh / subme=11 / psy=1 / psy_rd=1.00:0.00 / mixed_ref=1 / me_range=48 / chroma_me=1 / trellis=2 / 8x8dct=1 / cqm=0 / deadzone=21,11 / fast_pskip=0 / chroma_qp_offset=-2 / threads=10 / lookahead_threads=2 / sliced_threads=0 / nr=0 / decimate=1 / interlaced=0 / bluray_compat=0 / constrained_intra=0 / bframes=13 / b_pyramid=2 / b_adapt=2 / b_bias=0 / direct=3 / weightb=1 / open_gop=0 / weightp=2 / keyint=250 / keyint_min=23 / scenecut=40 / intra_refresh=0 / rc=2pass / mbtree=0 / bitrate=1704 / ratetol=1.0 / qcomp=0.70 / qpmin=0 / qpmax=69 / qpstep=4 / cplxblur=20.0 / qblur=0.5 / ip_ratio=1.40 / pb_ratio=1.30 / aq=1:0.80
    Язык : English
    Default : Да
    Forced : Нет

    Аудио
    Идентификатор : 2
    Формат : AC-3
    Формат/Информация : Audio Coding 3
    Расширение режима : CM (complete main)
    Параметр Endianness формата : Big
    Идентификатор кодека : A_AC3
    Продолжительность : 1 ч. 37 м.
    Вид битрейта : Постоянный
    Битрейт : 384 Кбит/сек
    Каналы : 6 каналов
    Расположение каналов : Front: L C R, Side: L R, LFE
    Частота : 48,0 КГц
    Битовая глубина : 16 бит
    Метод сжатия : С потерями
    Размер потока : 267 Мбайт (18%)
    Заголовок : Dub | DD 5.1 @ 384 kbps - iTunes
    Язык : Russian
    Default : Да
    Forced : Нет

    Текст #1
    Идентификатор : 3
    Формат : UTF-8
    Идентификатор кодека : S_TEXT/UTF8
    Идентификатор кодека/Информация : UTF-8 Plain Text
    Заголовок : Full
    Язык : English
    Default : Нет
    Forced : Нет

    Текст #2
    Идентификатор : 4
    Формат : UTF-8
    Идентификатор кодека : S_TEXT/UTF8
    Идентификатор кодека/Информация : UTF-8 Plain Text
    Заголовок : SDH
    Язык : English
    Default : Нет
    Forced : Нет

    Меню
    00:00:00.000 : :(01)00:00:00:000
    00:06:41.234 : :(02)00:06:41:234
    00:11:57.633 : :(03)00:11:57:633
    00:19:12.276 : :(04)00:19:12:276
    00:27:28.313 : :(05)00:27:28:313
    00:37:51.978 : :(06)00:37:51:978
    00:48:53.430 : :(07)00:48:53:430
    00:56:10.784 : :(08)00:56:10:784
    01:02:25.825 : :(09)01:02:25:825
    01:15:01.830 : :(10)01:15:01:830
    01:25:16.194 : :(11)01:25:16:194
    01:32:27.458 : :(12)01:32:27:458
10.0 из 10
голосов: 1
/10
/10
grab777 20-11-2015, 12:34
Информация
Посетители, находящиеся в группе Гости, не могут оставлять комментарии к данной публикации.