Панель пользователя
Регистрация

Воспользуйтесь социальными сетями для входа на https://freerutor.com

vk odnoklassniki facebook mailru yandex google
Популярное
Счетчик
Голосуй за нас
VIP на сайте
Популярное
Товары интернет магазина
загрузка...

Эверест / Everest (2015) HDRip-AVC | Лицензия

Эверест / Everest (2015) HDRip-AVC | Лицензия
Участники торрент обмена
Сидов Пиров Скачали
1 0 796
Характеристика
Размер Файлы
2.71 GB
Поделиться раздачей
Фильмы (AVC)
Наименование: Эверест
Оригинальное наименование: Everest
Произведено: США, Великобритания, Исландия
Категория: Триллер, драма, приключения
Режиссер постановщик: Бальтасар Кормакур
В главных ролях: Джейсон Кларк, Джош Бролин, Джон Хоукс, Робин Райт, Эмили Уотсон, Кира Найтли, Сэм Уортингтон, Джейк Джилленхол, Анг Фула Шерпа, Томас М. Райт, Мартин Хендерсон, Том Гудман-Хилл, Шарлотта Бювинг, Пемба Шерпа, Эми Шиндлер, Саймон Харрисон, Крис Райлли, Наоко Мори, Майкл Келли, Тим Дантей
Краткое описание: Эверест — великая неприступная гора, покорить вершину которой мечтают многие профессиональные скалолазы. Одна из экспедиций на ее вершину закончилась настоящей трагедией, однако этот факт не останавливает отважных альпинистов. Опытный инструктор Роб Холл, собрав группу из лучших альпинистов, собирается совершить восхождение на самую высокую вершину планеты. Все эти люди полны мужества и отваги и они не остановятся ни перед чем, пока не поднимутся на вершину Эвереста. Но даже если эта гора покорится им, смогут ли они вернуться обратно живыми и невредимыми?..
  • Видео данные: MPEG-4 AVC, 2300 Кбит/с, 1024x432
    Аудио данные: Русский, английский (AC3, 6 ch, 448 Кбит/с)
    Перевод: Дублированный [Лицензия]
    Субтитры: Русские, английские
    Продолжительность: 02:01:10
  • Эверест / Everest (2015) HDRip-AVC | Лицензия Эверест / Everest (2015) HDRip-AVC | Лицензия Эверест / Everest (2015) HDRip-AVC | Лицензия
  • General
    Unique ID : 196927538009740621484801760487092460106 (0x9426DD3E5B60E3409E1BB259D3471A4A)
    Complete name : L:\Video XVID\Everest.2015.BDRip-AVC.mkv
    Format : Matroska
    Format version : Version 4 / Version 2
    File size : 2.71 GiB
    Duration : 2h 1mn
    Overall bit rate : 3 199 Kbps
    Movie name : Everest (2015) - Release for HDCLUB
    Encoded date : UTC 2015-12-17 11:37:08
    Writing application : mkvmerge v8.6.1 ('Flying') 64bit
    Writing library : libebml v1.3.3 + libmatroska v1.4.4

    Video
    ID : 1
    Format : AVC
    Format/Info : Advanced Video Codec
    Format profile : High@L4.1
    Format settings, CABAC : Yes
    Format settings, ReFrames : 6 frames
    Codec ID : V_MPEG4/ISO/AVC
    Duration : 2h 1mn
    Bit rate : 2 300 Kbps
    Width : 1 024 pixels
    Height : 432 pixels
    Display aspect ratio : 2.40:1
    Original display aspect rat : 2.40:1
    Frame rate mode : Constant
    Frame rate : 23.976 (24000/1001) fps
    Color space : YUV
    Chroma subsampling : 4:2:0
    Bit depth : 8 bits
    Scan type : Progressive
    Bits/(Pixel*Frame) : 0.217
    Stream size : 1.95 GiB (72%)
    Writing library : x264 core 148 r2638M 7599210
    Encoding settings : cabac=1 / ref=6 / deblock=1:-1:-1 / analyse=0x3:0x133 / me=umh / subme=10 / psy=1 / psy_rd=1.05:0.10 / mixed_ref=1 / me_range=32 / chroma_me=1 / trellis=2 / 8x8dct=1 / cqm=0 / deadzone=21,11 / fast_pskip=0 / chroma_qp_offset=-3 / threads=5 / lookahead_threads=1 / sliced_threads=0 / nr=0 / decimate=1 / interlaced=0 / bluray_compat=0 / constrained_intra=0 / bframes=6 / b_pyramid=2 / b_adapt=2 / b_bias=0 / direct=3 / weightb=1 / open_gop=0 / weightp=2 / keyint=230 / keyint_min=23 / scenecut=40 / intra_refresh=0 / rc_lookahead=40 / rc=2pass / mbtree=1 / bitrate=2300 / ratetol=1.0 / qcomp=0.70 / qpmin=3 / qpmax=69 / qpstep=4 / cplxblur=20.0 / qblur=0.5 / ip_ratio=1.40 / aq=2:1.00
    Language : English
    Default : Yes
    Forced : No

    Audio #1
    ID : 2
    Format : AC-3
    Format/Info : Audio Coding 3
    Mode extension : CM (complete main)
    Format settings, Endianness : Big
    Codec ID : A_AC3
    Duration : 2h 1mn
    Bit rate mode : Constant
    Bit rate : 448 Kbps
    Channel(s) : 6 channels
    Channel positions : Front: L C R, Side: L R, LFE
    Sampling rate : 48.0 KHz
    Frame rate : 31.250 fps (1536 spf)
    Compression mode : Lossy
    Stream size : 388 MiB (14%)
    Title : Дубляж (BD HDClub)
    Language : Russian
    Default : Yes
    Forced : No

    Audio #2
    ID : 3
    Format : AC-3
    Format/Info : Audio Coding 3
    Mode extension : CM (complete main)
    Format settings, Endianness : Big
    Codec ID : A_AC3
    Duration : 2h 1mn
    Bit rate mode : Constant
    Bit rate : 448 Kbps
    Channel(s) : 6 channels
    Channel positions : Front: L C R, Side: L R, LFE
    Sampling rate : 48.0 KHz
    Frame rate : 31.250 fps (1536 spf)
    Compression mode : Lossy
    Stream size : 388 MiB (14%)
    Language : English
    Default : No
    Forced : No

    Text #1
    ID : 4
    Format : UTF-8
    Codec ID : S_TEXT/UTF8
    Codec ID/Info : UTF-8 Plain Text
    Duration : 1h 52mn
    Bit rate : 3 bps
    Count of elements : 55
    Stream size : 2.56 KiB (0%)
    Title : Forced
    Language : Russian
    Default : Yes
    Forced : No

    Text #2
    ID : 5
    Format : UTF-8
    Codec ID : S_TEXT/UTF8
    Codec ID/Info : UTF-8 Plain Text
    Duration : 1h 52mn
    Bit rate : 88 bps
    Count of elements : 1600
    Stream size : 72.9 KiB (0%)
    Title : Full
    Language : Russian
    Default : No
    Forced : No

    Text #3
    ID : 6
    Format : UTF-8
    Codec ID : S_TEXT/UTF8
    Codec ID/Info : UTF-8 Plain Text
    Duration : 1h 50mn
    Bit rate : 61 bps
    Count of elements : 1806
    Stream size : 49.9 KiB (0%)
    Language : English
    Default : No
    Forced : No

    Menu
    00:00:00.000 : en:00:00:00.000
    00:05:12.145 : en:00:05:12.145
    00:09:36.075 : en:00:09:36.075
    00:15:13.162 : en:00:15:13.162
    00:20:58.424 : en:00:20:58.424
    00:26:30.714 : en:00:26:30.714
    00:33:15.118 : en:00:33:15.118
    00:40:23.755 : en:00:40:23.755
    00:47:23.382 : en:00:47:23.382
    00:52:14.590 : en:00:52:14.590
    00:57:49.174 : en:00:57:49.174
    01:01:54.794 : en:01:01:54.794
    01:07:22.080 : en:01:07:22.080
    01:15:40.578 : en:01:15:40.578
    01:21:03.901 : en:01:21:03.901
    01:26:59.589 : en:01:26:59.589
    01:32:39.137 : en:01:32:39.137
    01:41:20.449 : en:01:41:20.449
    01:46:47.651 : en:01:46:47.651
    01:54:06.465 : en:01:54:06.465
9.3 из 10
голосов: 6
/10
/10
Раздачу отредактировал: grab777 - 19-12-2015, 11:30
По причине: (Замена WEB-DLRip-AVC на BDRip-AVC)
6arbo 19-12-2015, 11:30
Информация
Посетители, находящиеся в группе Гости, не могут оставлять комментарии к данной публикации.