Панель пользователя
Регистрация

Воспользуйтесь социальными сетями для входа на https://freerutor.com

vk odnoklassniki facebook mailru yandex google
Популярное
Счетчик
Голосуй за нас
VIP на сайте
Популярное
Товары интернет магазина
загрузка...

Дама в очках и с ружьем в автомобиле / La dame dans l'auto avec des lunettes et un fusil (2015) BDRip 1080p | Лицензия

Дама в очках и с ружьем в автомобиле / La dame dans l'auto avec des lunettes et un fusil (2015) BDRip 1080p | Лицензия
Участники торрент обмена
Сидов Пиров Скачали
2 0 379
Характеристика
Размер Файлы
7.88 GB
Поделиться раздачей
Фильмы (720,1080,Blu-Ray)
Наименование: Дама в очках и с ружьем в автомобиле
Оригинальное наименование: La dame dans l'auto avec des lunettes et un fusil
Произведено: Франция, Бельгия
Категория: триллер
Режиссер постановщик: Жоанн Сфар
В главных ролях: Фрейя Мавор, Бенжамин Биолэй, Элио Джермано, Стэйси Мартин, Тьерри Анкиссе, Сандрин Ларош, Фредерик Этерлинк, Ален Белло, Эдуар Жиар, Франсуа-Доминик Блен
Краткое описание: Она самая прекрасная, самая чувственная, самая импульсивная, самая упрямая, самая незадачливая девушка. Она хотела воплотить мечту и увидеть море, а в результате попала в невероятную переделку. В чужом автомобиле и с трупом в багажнике, скрываясь от полиции и рискуя собственной жизнью, ей осталось только одно - убедить себя в том, что она еще не окончательно сошла с ума, и что она - это она, а не кто-то другой...
  • Видео данные: MPEG-4 AVC, 10 Мбит/с, 1920x804
    Аудио данные: Русский (AC3, 6 ch, 384 Кбит/с), французский (DTS, 6 ch, 1509 Кбит/с)
    Озвучивание: Дублированное [iTunes]
    Субтитры: Французские
    Продолжительность: 01:34:49
  • Дама в очках и с ружьем в автомобиле / La dame dans l'auto avec des lunettes et un fusil (2015) BDRip 1080p | Лицензия Дама в очках и с ружьем в автомобиле / La dame dans l'auto avec des lunettes et un fusil (2015) BDRip 1080p | Лицензия Дама в очках и с ружьем в автомобиле / La dame dans l'auto avec des lunettes et un fusil (2015) BDRip 1080p | Лицензия
  • General
    Unique ID : 245742319071195768367752099355725480261 (0xB8E03FC460B94A63B17A75A1A92D4145)
    Complete name : La dame dans l'auto avec des lunettes et un fusil. 2015. BDRip 1080p - ylnian.mkv
    Format : Matroska
    Format version : Version 4 / Version 2
    File size : 7.88 GiB
    Duration : 1h 34mn
    Overall bit rate : 11.9 Mbps
    Movie name : La dame dans l'auto avec des lunettes et un fusil. 2015. BDRip 1080p - ylnian
    Encoded date : UTC 2015-12-14 07:44:03
    Writing application : mkvmerge v8.3.0 ('Over the Horizon') 64bit
    Writing library : libebml v1.3.1 + libmatroska v1.4.2

    Video
    ID : 1
    Format : AVC
    Format/Info : Advanced Video Codec
    Format profile : High@L4.1
    Format settings, CABAC : Yes
    Format settings, ReFrames : 4 frames
    Codec ID : V_MPEG4/ISO/AVC
    Duration : 1h 34mn
    Bit rate : 10 000 Kbps
    Width : 1 920 pixels
    Height : 804 pixels
    Display aspect ratio : 2.40:1
    Frame rate mode : Constant
    Frame rate : 24.000 fps
    Color space : YUV
    Chroma subsampling : 4:2:0
    Bit depth : 8 bits
    Scan type : Progressive
    Bits/(Pixel*Frame) : 0.270
    Stream size : 6.47 GiB (82%)
    Title : La dame dans l'auto avec des lunettes et un fusil. 2015. BDRip 1080p - ylnian
    Writing library : x264 core 146 r2538 121396c
    Encoding settings : cabac=1 / ref=4 / deblock=1:-3:-3 / analyse=0x3:0x133 / me=umh / subme=11 / psy=1 / psy_rd=1.05:0.15 / mixed_ref=1 / me_range=48 / chroma_me=1 / trellis=2 / 8x8dct=1 / cqm=0 / deadzone=21,11 / fast_pskip=1 / chroma_qp_offset=-6 / threads=8 / lookahead_threads=2 / sliced_threads=0 / nr=0 / decimate=1 / interlaced=0 / bluray_compat=0 / constrained_intra=0 / bframes=12 / b_pyramid=2 / b_adapt=2 / b_bias=0 / direct=2 / weightb=1 / open_gop=0 / weightp=1 / keyint=240 / keyint_min=1 / scenecut=40 / intra_refresh=0 / rc_lookahead=60 / rc=2pass / mbtree=1 / bitrate=10000 / ratetol=1.0 / qcomp=0.60 / qpmin=0 / qpmax=69 / qpstep=4 / cplxblur=20.0 / qblur=0.5 / vbv_maxrate=40000 / vbv_bufsize=78125 / nal_hrd=none / filler=0 / ip_ratio=1.40 / aq=2:1.00
    Language : French
    Default : Yes
    Forced : Yes

    Audio #1
    ID : 2
    Format : AC-3
    Format/Info : Audio Coding 3
    Mode extension : CM (complete main)
    Format settings, Endianness : Big
    Codec ID : A_AC3
    Duration : 1h 34mn
    Bit rate mode : Constant
    Bit rate : 384 Kbps
    Channel(s) : 6 channels
    Channel positions : Front: L C R, Side: L R, LFE
    Sampling rate : 48.0 KHz
    Compression mode : Lossy
    Stream size : 260 MiB (3%)
    Title : DUB (iTunes) (AC3 5.1 384 kbps)
    Language : Russian
    Default : Yes
    Forced : Yes

    Audio #2
    ID : 3
    Format : DTS
    Format/Info : Digital Theater Systems
    Mode : 16
    Format settings, Endianness : Big
    Codec ID : A_DTS
    Duration : 1h 34mn
    Bit rate mode : Constant
    Bit rate : 1 509 Kbps
    Channel(s) : 6 channels
    Channel positions : Front: L C R, Side: L R, LFE
    Sampling rate : 48.0 KHz
    Bit depth : 24 bits
    Compression mode : Lossy
    Stream size : 1 024 MiB (13%)
    Title : DTS 5.1 1509 kbps
    Language : French
    Default : No
    Forced : No

    Text
    ID : 4
    Format : UTF-8
    Codec ID : S_TEXT/UTF8
    Codec ID/Info : UTF-8 Plain Text
    Title : SDH
    Language : French
    Default : No
    Forced : No

    Menu
    00:00:00.000 : en:(01)00:00:00:000
    00:07:53.208 : en:(02)00:07:53:208
    00:17:22.583 : en:(03)00:17:22:583
    00:24:11.916 : en:(04)00:24:11:916
    00:32:13.500 : en:(05)00:32:13:500
    00:37:32.625 : en:(06)00:37:32:625
    00:47:16.166 : en:(07)00:47:16:166
    00:55:10.375 : en:(08)00:55:10:375
    01:04:41.250 : en:(09)01:04:41:250
    01:12:13.500 : en:(10)01:12:13:500
    01:21:27.166 : en:(11)01:21:27:166
    01:28:42.041 : en:(12)01:28:42:041
    01:34:48.958 : en:(13)01:34:48:958
7.0 из 10
голосов: 6
/10
/10
grab777 14-12-2015, 14:44

Avenir97 | 19-11-2015, 23:55 | Статус: Онлайн

Мда.... Книга намного интереснее.... Фильм так себе, отстойный...

Avenir97 | 19-11-2015, 11:14 | Статус: Онлайн

Читал книгу - обалденная вещь!
Информация
Посетители, находящиеся в группе Гости, не могут оставлять комментарии к данной публикации.