Панель пользователя
Регистрация

Воспользуйтесь социальными сетями для входа на https://freerutor.com

vk odnoklassniki facebook mailru yandex google
Популярное
Счетчик
Голосуй за нас
VIP на сайте
Популярное
Товары интернет магазина
загрузка...

Мертвенно-бледный / Livide (2011) BDRip 720p

Мертвенно-бледный / Livide (2011) BDRip 720p
Участники торрент обмена
Сидов Пиров Скачали
0 0 248
Характеристика
Размер Файлы
3.66 GB
Релиз группа
Поделиться раздачей
Фильмы (720,1080,Blu-Ray)
Наименование: Мертвенно-бледный
Оригинальное наименование: Livide
Категория: Ужасы
Произведено: Франция / La Fabrique 2, SND, Backup Films, Canal+ [fr], Ciné Cinémas, La Ferme! Productions
Режиссер постановщик: Александр Бустильо, Жюльен Мори
В главных ролях: Хлоя Куллу, Феликс Моати, Жереми Капон, Катрин Жакоб, Беатрис Даль, Хлоя Марк, Мари-Клод Пьетрагалла, Лоик Бертезен, Жоэль Кюденнек, Сабина Лондо
Краткое описание: Люси устраивается на работу сиделкой-воспитателем. Ее задание — посетить старуху, которая живет в большом пустынном доме. Случайно Люси узнает, что в доме старой женщины спрятаны сокровища. Вместе с друзьями, ночью, они проникают в дом, который становится для них дьявольской ловушкой, т. к. охотникам за чужими сокровищами предстоит пережить ужасающие сверхъестественные события…
  • Видео данные: MPEG-4 AVC, 5221 Кбит/с, 1280x544
    Аудио данные: AC3, 6 ch, 448 Кбит/с
    Перевод: Любительский одноголосый [MrRose]
    Субтитры: Русские, английские
    Продолжительность: 01:32:22
  • Мертвенно-бледный / Livide (2011) BDRip 720p Мертвенно-бледный / Livide (2011) BDRip 720p Мертвенно-бледный / Livide (2011) BDRip 720p
  • General
    Unique ID : 214018078883061676282354089783653356027 (0xA10261F70FC9278489E31D5594E8D1FB)
    Complete name : D:Livide.2011.BDRip.720p_by_Bathory.mkv
    Format : Matroska
    Format version : Version 4 / Version 2
    File size : 3.66 GiB
    Duration : 1h 32mn
    Overall bit rate : 5 669 Kbps
    Movie name : Livide.2011.BDRip.720p_by_Bathory
    Encoded date : UTC 2015-11-17 17:58:03
    Writing application : mkvmerge v8.5.2 ('Crosses') 64bit
    Writing library : libebml v1.3.3 + libmatroska v1.4.4
    DURATION : 01:30:31.875000000
    NUMBER_OF_FRAMES : 1024
    NUMBER_OF_BYTES : 3182238
    _STATISTICS_WRITING_APP : mkvmerge v8.5.2 ('Crosses') 64bit
    _STATISTICS_WRITING_DATE_UTC : 2015-11-17 17:58:03
    _STATISTICS_TAGS : BPS DURATION NUMBER_OF_FRAMES NUMBER_OF_BYTES

    Video
    ID : 1
    Format : AVC
    Format/Info : Advanced Video Codec
    Format profile : High@L4.1
    Format settings, CABAC : Yes
    Format settings, ReFrames : 9 frames
    Codec ID : V_MPEG4/ISO/AVC
    Duration : 1h 32mn
    Bit rate : 5 221 Kbps
    Width : 1 280 pixels
    Height : 544 pixels
    Display aspect ratio : 2.35:1
    Frame rate mode : Constant
    Frame rate : 24.000 fps
    Color space : YUV
    Chroma subsampling : 4:2:0
    Bit depth : 8 bits
    Scan type : Progressive
    Bits/(Pixel*Frame) : 0.312
    Stream size : 3.30 GiB (90%)
    Writing library : x264 core 148 r2638 7599210
    Encoding settings : cabac=1 / ref=9 / deblock=1:-2:-2 / analyse=0x3:0x133 / me=umh / subme=11 / psy=1 / psy_rd=1.10:0.12 / mixed_ref=1 / me_range=32 / chroma_me=1 / trellis=2 / 8x8dct=1 / cqm=0 / deadzone=21,11 / fast_pskip=0 / chroma_qp_offset=-3 / threads=12 / lookahead_threads=3 / sliced_threads=0 / nr=0 / decimate=1 / interlaced=0 / bluray_compat=0 / constrained_intra=0 / bframes=14 / b_pyramid=2 / b_adapt=2 / b_bias=0 / direct=3 / weightb=1 / open_gop=0 / weightp=2 / keyint=240 / keyint_min=24 / scenecut=40 / intra_refresh=0 / rc_lookahead=60 / rc=2pass / mbtree=1 / bitrate=5221 / ratetol=1.0 / qcomp=0.60 / qpmin=0 / qpmax=69 / qpstep=4 / cplxblur=20.0 / qblur=0.5 / vbv_maxrate=62500 / vbv_bufsize=78125 / nal_hrd=none / filler=0 / ip_ratio=1.40 / aq=1:1.00
    Default : Yes
    Forced : No

    Audio
    ID : 2
    Format : AC-3
    Format/Info : Audio Coding 3
    Mode extension : CM (complete main)
    Format settings, Endianness : Big
    Codec ID : A_AC3
    Duration : 1h 32mn
    Bit rate mode : Constant
    Bit rate : 448 Kbps
    Channel(s) : 6 channels
    Channel positions : Front: L C R, Side: L R, LFE
    Sampling rate : 48.0 KHz
    Bit depth : 16 bits
    Compression mode : Lossy
    Stream size : 296 MiB (8%)
    Language : Russian
    Default : Yes
    Forced : No

    Text #1
    ID : 3
    Format : PGS
    Muxing mode : zlib
    Codec ID : S_HDMV/PGS
    Codec ID/Info : The same subtitle format used on BDs/HD-DVDs
    Language : Russian
    Default : Yes
    Forced : No

    Text #2
    ID : 4
    Format : PGS
    Muxing mode : zlib
    Codec ID : S_HDMV/PGS
    Codec ID/Info : The same subtitle format used on BDs/HD-DVDs
    Language : English
    Default : No
    Forced : No
10.0 из 10
голосов: 1
/10
/10
grab777 18-11-2015, 02:54
Информация
Посетители, находящиеся в группе Гости, не могут оставлять комментарии к данной публикации.