Панель пользователя
Регистрация

Воспользуйтесь социальными сетями для входа на https://freerutor.com

vk odnoklassniki facebook mailru yandex google
Популярное
Счетчик
Голосуй за нас
VIP на сайте
Популярное
Товары интернет магазина
загрузка...

Преступник / Offender (2012) BDRip-AVC

Преступник / Offender (2012) BDRip-AVC
Участники торрент обмена
Сидов Пиров Скачали
0 0 2361
Характеристика
Размер Файлы
1.61 GB
Релиз группа
Поделиться раздачей
Фильмы (AVC)
Наименование: Преступник
Оригинальное наименование: Offender
Категория: Триллер, криминал, драма
Произведено: Великобритания / Gunslinger
Режиссер постановщик: Рон Скальпелло
В главных ролях: Джо Коул, Инглиш Фрэнк, Шон Дули, Израэль Оба, Хейдер Али, Джейкоб Андерсон, Вэс Блэквуд, Джи Фрэш
Краткое описание: В центре событий парень 20-ти лет из рабочего класса — Томми Никс, который мстит за жестокое избиение своей девушки. Для того, чтобы разобраться с обидчиками, он садится в тюрьму, где те и обитают.
  • Видео данные: MPEG-4 AVC, 1881 Кбит/с, 1024x552
    Аудио данные: AC3, 6 ch, 384 Кбит/с
    Перевод: Любительское одноголосое [den904]
    Субтитры: Английские
    Продолжительность: 01:41:45
  • Преступник / Offender (2012) BDRip-AVC Преступник / Offender (2012) BDRip-AVC Преступник / Offender (2012) BDRip-AVC
  • Общее
    Уникальный идентификатор : 245329034722495682091418254672365305461 (0xB890A74687ECF960A24491EF49C73E75)
    Полное имя : E:\Раздача-BDRip\Prestupnik.2012.x264.BDRip.(AVC).by.Тorrent-Хzona.mkv
    Формат : Matroska
    Версия формата : Version 2
    Размер файла : 1,61 Гбайт
    Продолжительность : 1 ч. 41 м.
    Общий поток : 2266 Кбит/сек
    Дата кодирования : UTC 2013-01-07 14:50:15
    Программа кодирования : mkvmerge v5.6.0 ('Kenya Kane') built on Jun 29 2012 15:01:44
    Библиотека кодирования : libebml v1.2.3 + libmatroska v1.3.0

    Видео
    Идентификатор : 1
    Формат : AVC
    Формат/Информация : Advanced Video Codec
    Профиль формата : High@L4.1
    Параметр CABAC формата : Да
    Параметр ReFrames формата : 5 кадров
    Идентификатор кодека : V_MPEG4/ISO/AVC
    Продолжительность : 1 ч. 41 м.
    Битрейт : 1881 Кбит/сек
    Ширина : 1024 пикселя
    Высота : 552 пикселя
    Соотношение сторон : 1,85:1
    Режим частоты кадров : Постоянный
    Частота кадров : 23,976 кадра/сек
    Цветовое пространство : YUV
    Субдискретизация насыщенности : 4:2:0
    Битовая глубина : 8 бит
    Тип развёртки : Прогрессивная
    Бит/(Пиксели*Кадры) : 0.139
    Размер потока : 1,31 Гбайт (81%)
    Библиотека кодирования : x264 core 125 r2200 999b753
    Настройки программы : cabac=1 / ref=5 / deblock=1:-2:-2 / analyse=0x3:0x111 / me=umh / subme=9 / psy=1 / psy_rd=0.00:0.10 / mixed_ref=1 / me_range=32 / chroma_me=1 / trellis=2 / 8x8dct=1 / cqm=0 / deadzone=21,11 / fast_pskip=0 / chroma_qp_offset=-1 / threads=3 / lookahead_threads=1 / sliced_threads=0 / nr=0 / decimate=1 / interlaced=0 / bluray_compat=0 / constrained_intra=0 / bframes=5 / b_pyramid=2 / b_adapt=0 / b_bias=0 / direct=1 / weightb=1 / open_gop=0 / weightp=2 / keyint=250 / keyint_min=23 / scenecut=40 / intra_refresh=0 / rc_lookahead=50 / rc=2pass / mbtree=1 / bitrate=1881 / ratetol=1.0 / qcomp=0.60 / qpmin=0 / qpmax=69 / qpstep=4 / cplxblur=20.0 / qblur=0.5 / ip_ratio=1.40 / aq=1:1.00
    Default : Да
    Forced : Нет

    Аудио
    Идентификатор : 2
    Формат : AC-3
    Формат/Информация : Audio Coding 3
    Расширение режима : CM (complete main)
    Параметр Endianness формата : Big
    Идентификатор кодека : A_AC3
    Продолжительность : 1 ч. 41 м.
    Вид битрейта : Постоянный
    Битрейт : 384 Кбит/сек
    Каналы : 6 каналов
    Расположение каналов : Front: L C R, Side: L R, LFE
    Частота : 48,0 КГц
    Битовая глубина : 16 бит
    Метод сжатия : С потерями
    Размер потока : 279 Мбайт (17%)
    Default : Да
    Forced : Нет
10.0 из 10
голосов: 1
/10
/10
grab777 16-11-2015, 19:50
Информация
Посетители, находящиеся в группе Гости, не могут оставлять комментарии к данной публикации.