Панель пользователя
Регистрация

Воспользуйтесь социальными сетями для входа на https://freerutor.com

vk odnoklassniki facebook mailru yandex google
Популярное
Счетчик
Голосуй за нас
VIP на сайте
Популярное
Товары интернет магазина
загрузка...

Чужое лицо (2015) HDTV 1080i

Чужое лицо (2015) HDTV 1080i
Участники торрент обмена
Сидов Пиров Скачали
1 0 314
Характеристика
Размер Файлы
5.34 GB
Поделиться раздачей
Фильмы (720,1080,Blu-Ray)
Наименование: Чужое лицо
Категория: Мелодрама
Произведено: Россия / Студия Паламеда, Русское
Режиссер постановщик: Алексей Карелин
В главных ролях: Полина Стрельникова, Александр Лымарев, Марина Денисова, Игорь Денисов, Светлана Кожемякина, Алеся Подоляк
Краткое описание: Мария, актриса из провинциального города, получает предложение сыграть самую странную роль в своей жизни. Она должна не на сцене и не в кино, а в реальности перевоплотиться в недавно погибшую женщину, сделав пластическую операцию. Мария, хоть и считает предложение безумным, отказаться не может: ей срочно нужны деньги для лечения брата, единственного близкого человека на свете. И девушка ввязывается в авантюру, «надевая» на себя чужое лицо.
  • Видео данные: MPEG-TS, 7866 Кбит/с, 1920x1080
    Аудио данные: MP2, 2 ch, 192 Кбит/с
    Перевод: Оригинал
    Продолжительность: 01:30:11
  • Чужое лицо (2015) HDTV 1080i Чужое лицо (2015) HDTV 1080i Чужое лицо (2015) HDTV 1080i
  • General
    ID : 1 (0x1)
    Complete name : Chuzhoe.lico.2015.HDTV.1080i.ts
    Format : MPEG-TS
    File size : 5.34 GiB
    Duration : 1h 30mn
    Overall bit rate mode : Variable
    Overall bit rate : 8 478 Kbps

    Video
    ID : 2911 (0xB5F)
    Menu ID : 1009 (0x3F1)
    Format : AVC
    Format/Info : Advanced Video Codec
    Format profile : High@L4
    Format settings, CABAC : Yes
    Format settings, ReFrames : 4 frames
    Codec ID : 27
    Duration : 1h 30mn
    Bit rate : 7 866 Kbps
    Width : 1 920 pixels
    Height : 1 080 pixels
    Display aspect ratio : 16:9
    Frame rate : 25.000 fps
    Color space : YUV
    Chroma subsampling : 4:2:0
    Bit depth : 8 bits
    Scan type : MBAFF
    Scan order : Top Field First
    Bits/(Pixel*Frame) : 0.152
    Stream size : 4.95 GiB (93%)

    Audio
    ID : 2912 (0xB60)
    Menu ID : 1009 (0x3F1)
    Format : MPEG Audio
    Format version : Version 1
    Format profile : Layer 2
    Codec ID : 3
    Duration : 1h 30mn
    Bit rate mode : Constant
    Bit rate : 192 Kbps
    Channel(s) : 2 channels
    Sampling rate : 48.0 KHz
    Compression mode : Lossy
    Stream size : 124 MiB (2%)
    Language : Russian
9.8 из 10
голосов: 5
/10
/10
grab777 16-11-2015, 00:38
Информация
Посетители, находящиеся в группе Гости, не могут оставлять комментарии к данной публикации.