Панель пользователя
Регистрация

Воспользуйтесь социальными сетями для входа на https://freerutor.com

vk odnoklassniki facebook mailru yandex google
Популярное
Счетчик
Голосуй за нас
VIP на сайте
Популярное
Товары интернет магазина
загрузка...

Прежде чем мы расстанемся / Before We Go (2014) BDRip-AVC

Прежде чем мы расстанемся / Before We Go (2014) BDRip-AVC
Участники торрент обмена
Сидов Пиров Скачали
2 0 562
Характеристика
Размер Файлы
1.44 GB
Поделиться раздачей
Фильмы (AVC)
Наименование: Прежде чем мы расстанемся
Оригинальное наименование: Before We Go
Категория: Драма, мелодрама, комедия
Произведено: США / G4 Productions, Nutmeg Film Productions, Wonderland Sound and Vision
Режиссер постановщик: Крис Эванс
В главных ролях: Крис Эванс, Элис Ив, Скотт Эванс, Эмма Фитцпатрик, Мария Брэймэн, Джон Каллам, Марк Кассен, Бет Катехис, Дэниэл Спинк, Кевин Керолан
Краткое описание: Мужчина и женщина, ранее не знавшие друг друга, проводят ночь вместе. Противоречия, испытываемые героями в жизни, становятся основой для исследования друг друга и самих себя.
  • Видео данные: MPEG-4 AVC, 2000 Кбит/с, 1024x552
    Аудио данные: AC3, 2 ch, 192 Кбит/с
    Перевод: Любительский многоголосый [CCK Media Production и NesTea]
    Продолжительность: 01:35:24
  • Прежде чем мы расстанемся / Before We Go (2014) BDRip-AVC Прежде чем мы расстанемся / Before We Go (2014) BDRip-AVC
  • Общее
    Уникальный идентификатор : 115030683639195805567644268254383728132 (0x568A1A9394B786702C630E0AA1366604)
    Полное имя : J:\ТОРРЕНТ\AVC\Prezhde.chem.my.rasstanemsja.2014.LM.HDRip.AVC.Maystepanov.mkv
    Формат : Matroska
    Версия формата : Version 4 / Version 2
    Размер файла : 1,44 Гбайт
    Продолжительность : 1 ч. 35 м.
    Общий поток : 2164 Кбит/сек
    Программа кодирования : Lavf55.19.104
    Библиотека кодирования : Lavf55.19.104

    Видео
    Идентификатор : 1
    Формат : AVC
    Формат/Информация : Advanced Video Codec
    Профиль формата : Baseline@L1.3
    Параметр CABAC формата : Нет
    Параметр ReFrames формата : 2 кадра
    Идентификатор кодека : V_MPEG4/ISO/AVC
    Продолжительность : 1 ч. 35 м.
    Битрейт : 2000 Кбит/сек
    Ширина : 1024 пикселя
    Высота : 552 пикселя
    Соотношение сторон : 16:9
    Режим частоты кадров : Постоянный
    Частота кадров : 23,976 кадра/сек
    Цветовое пространство : YUV
    Субдискретизация насыщенности : 4:2:0
    Битовая глубина : 8 бит
    Тип развёртки : Прогрессивная
    Бит/(Пиксели*Кадры) : 0.148
    Размер потока : 1,29 Гбайт (89%)
    Заголовок : for HDS
    Библиотека кодирования : x264 core 140 r2377 1ca7bb9
    Настройки программы : cabac=0 / ref=2 / deblock=1:0:0 / analyse=0x1:0x111 / me=umh / subme=6 / psy=1 / psy_rd=1.00:0.00 / mixed_ref=1 / me_range=16 / chroma_me=1 / trellis=0 / 8x8dct=0 / cqm=0 / deadzone=21,11 / fast_pskip=1 / chroma_qp_offset=-2 / threads=12 / lookahead_threads=2 / sliced_threads=0 / nr=0 / decimate=1 / interlaced=0 / bluray_compat=0 / constrained_intra=0 / bframes=0 / weightp=0 / keyint=250 / keyint_min=23 / scenecut=40 / intra_refresh=0 / rc_lookahead=40 / rc=abr / mbtree=1 / bitrate=2000 / ratetol=1.0 / qcomp=0.60 / qpmin=0 / qpmax=69 / qpstep=4 / ip_ratio=1.40 / aq=1:1.00
    Язык : English
    Default : Да
    Forced : Нет

    Аудио
    Идентификатор : 2
    Формат : AC-3
    Формат/Информация : Audio Coding 3
    Расширение режима : CM (complete main)
    Параметр Endianness формата : Big
    Идентификатор кодека : A_AC3
    Продолжительность : 1 ч. 35 м.
    Вид битрейта : Постоянный
    Битрейт : 192 Кбит/сек
    Каналы : 2 канала
    Расположение каналов : Front: L R
    Частота : 44,1 КГц
    Битовая глубина : 32 бит
    Метод сжатия : С потерями
    Задержка видео : -6 мс.
    Размер потока : 131 Мбайт (9%)
    Заголовок : Студия "CCK Media Production" и NesTea
    Язык : Russian
    Default : Да
    Forced : Нет
10.0 из 10
голосов: 2
/10
/10
grab777 15-11-2015, 17:08
Информация
Посетители, находящиеся в группе Гости, не могут оставлять комментарии к данной публикации.