Панель пользователя
Регистрация

Воспользуйтесь социальными сетями для входа на https://freerutor.com

vk odnoklassniki facebook mailru yandex google
Популярное
Счетчик
Голосуй за нас
VIP на сайте
Популярное
Товары интернет магазина
загрузка...

Адмирал / Michiel de Ruyter (2015) BDRip 1080p | Сербин

Адмирал / Michiel de Ruyter (2015) BDRip 1080p | Сербин
Участники торрент обмена
Сидов Пиров Скачали
0 0 99
Характеристика
Размер Файлы
13.13 GB
Поделиться раздачей
Фильмы (720,1080,Blu-Ray)
Наименование: Адмирал
Оригинальное наименование: Michiel de Ruyter
Категория: Боевик, драма, приключения, биография, история
Произведено: Нидерланды / AVROTROS, Ciné Cri De Coeur, Farmhouse Film & TV, Grid-vfx
Режиссер постановщик: Роэль Рейн
В главных ролях: Франк Ламерс, Барри Атсма, Рёланд Фернхут, Эгберт Ян Вебер, Тиго Гернандт, Дерек де Линт, Хайо Брюинс, Жуль Кройсет
Краткое описание: Михил Рюйтер был одним из самых главных новаторов в боевой технике. Он стал героем голландского флота. В то время как Голландию, находившуюся на грани гражданской войны, атаковали со всех сторон, лишь один человек пытался бороться за интересы страны — Михаил Рюйтер. Но в глазах власть имущих его успехи делали его слишком популярным, и Рюйтера отправили на смертельно опасное задание…
  • Видео данные: MPEG-4 AVC, 8656 Кбит/с, 1920x808
    Аудио данные: Русский (AC3, 6 ch, 448 Кбит/с), (DTS, 6 ch, 1536 Кбит/с), голландский (DTS, 6 ch, 1536 Кбит/с)
    Перевод: Авторский [Ю. Сербин]
    Субтитры: Русские, английские, голландские
    Продолжительность: 02:31:54
  • Адмирал / Michiel de Ruyter (2015) BDRip 1080p | Сербин Адмирал / Michiel de Ruyter (2015) BDRip 1080p | Сербин Адмирал / Michiel de Ruyter (2015) BDRip 1080p | Сербин
  • General
    Unique ID : 206667085186353130613887212898218271824 (0x9B7AA1FE6454558F98EAAEB9D725E450)
    Complete name : C:\Torrent загрузки\kinozal.tv\Admiral.2015.P1.BDRip.1080p.mkv
    Format : Matroska
    Format version : Version 4 / Version 2
    File size : 13.1 GiB
    Duration : 2h 31mn
    Overall bit rate : 12.4 Mbps
    Movie name : Michiel de Ruyter
    Encoded date : UTC 2015-11-14 23:16:26
    Writing application : mkvmerge v8.5.0 ('Vanishing Act') 64bit
    Writing library : libebml v1.3.1 + libmatroska v1.4.2
    DURATION : 02:14:56.165000000
    NUMBER_OF_FRAMES : 144
    NUMBER_OF_BYTES : 4916
    _STATISTICS_WRITING_APP : mkvmerge v8.5.0 ('Vanishing Act') 64bit
    _STATISTICS_WRITING_DATE_UT : 2015-11-14 23:16:26
    _STATISTICS_TAGS : BPS DURATION NUMBER_OF_FRAMES NUMBER_OF_BYTES

    Video
    ID : 1
    Format : AVC
    Format/Info : Advanced Video Codec
    Format profile : High@L4.1
    Format settings, CABAC : Yes
    Format settings, ReFrames : 5 frames
    Codec ID : V_MPEG4/ISO/AVC
    Duration : 2h 31mn
    Bit rate : 8 656 Kbps
    Width : 1 920 pixels
    Height : 808 pixels
    Display aspect ratio : 2.40:1
    Frame rate mode : Constant
    Frame rate : 24.000 fps
    Color space : YUV
    Chroma subsampling : 4:2:0
    Bit depth : 8 bits
    Scan type : Progressive
    Bits/(Pixel*Frame) : 0.232
    Stream size : 9.18 GiB (70%)
    Writing library : x264 core 142 r2431+42 c69a006 tMod [8-bit@all X86_64]
    Encoding settings : cabac=1 / ref=5 / deblock=1:-3:-3 / analyse=0x3:0x133 / me=umh / subme=10 / psy=1 / fade_compensate=0.00 / psy_rd=1.10:0.00 / mixed_ref=1 / me_range=32 / chroma_me=1 / trellis=2 / 8x8dct=1 / cqm=0 / deadzone=21,11 / fast_pskip=0 / chroma_qp_offset=-2 / threads=6 / lookahead_threads=1 / sliced_threads=0 / nr=0 / decimate=0 / interlaced=0 / bluray_compat=0 / constrained_intra=0 / fgo=0 / bframes=8 / b_pyramid=2 / b_adapt=2 / b_bias=0 / direct=3 / weightb=1 / open_gop=0 / weightp=2 / keyint=250 / keyint_min=24 / scenecut=40 / intra_refresh=0 / rc=crf / mbtree=0 / crf=17.0000 / qcomp=0.60 / qpmin=0:0:0 / qpmax=69:69:69 / qpstep=4 / ip_ratio=1.20 / pb_ratio=1.10 / aq=4:1.00 / aq-sensitivity=10.00 / aq-factor=1.00:1.00:1.00 / aq2=0 / aq3=0
    Language : Dutch
    Default : Yes
    Forced : No
    DURATION : 02:31:53.709000000
    NUMBER_OF_FRAMES : 218729
    NUMBER_OF_BYTES : 10138126177
    _STATISTICS_WRITING_APP : mkvmerge v8.5.0 ('Vanishing Act') 64bit
    _STATISTICS_WRITING_DATE_UT : 2015-11-14 23:16:26
    _STATISTICS_TAGS : BPS DURATION NUMBER_OF_FRAMES NUMBER_OF_BYTES

    Audio #1
    ID : 2
    Format : AC-3
    Format/Info : Audio Coding 3
    Mode extension : CM (complete main)
    Format settings, Endianness : Big
    Codec ID : A_AC3
    Duration : 2h 31mn
    Bit rate mode : Constant
    Bit rate : 448 Kbps
    Channel(s) : 6 channels
    Channel positions : Front: L C R, Side: L R, LFE
    Sampling rate : 48.0 KHz
    Compression mode : Lossy
    Stream size : 487 MiB (4%)
    Title : Сербин
    Language : Russian
    Default : Yes
    Forced : No

    Audio #2
    ID : 3
    Format : DTS
    Format/Info : Digital Theater Systems
    Mode : 16
    Format settings, Endianness : Big
    Codec ID : A_DTS
    Duration : 2h 31mn
    Bit rate mode : Constant
    Bit rate : 1 510 Kbps
    Channel(s) : 6 channels
    Channel positions : Front: L C R, Side: L R, LFE
    Sampling rate : 48.0 KHz
    Bit depth : 24 bits
    Compression mode : Lossy
    Stream size : 1.60 GiB (12%)
    Title : DTS @ 5.1_ 1536 [Сербин]
    Default : No
    Forced : No

    Audio #3
    ID : 4
    Format : DTS
    Format/Info : Digital Theater Systems
    Mode : 16
    Format settings, Endianness : Big
    Codec ID : A_DTS
    Duration : 2h 31mn
    Bit rate mode : Constant
    Bit rate : 1 510 Kbps
    Channel(s) : 6 channels
    Channel positions : Front: L C R, Side: L R, LFE
    Sampling rate : 48.0 KHz
    Bit depth : 24 bits
    Compression mode : Lossy
    Stream size : 1.60 GiB (12%)
    Language : Dutch
    Default : No
    Forced : No

    Text #1
    ID : 5
    Format : UTF-8
    Codec ID : S_TEXT/UTF8
    Codec ID/Info : UTF-8 Plain Text
    Language : Russian
    Default : Yes
    Forced : Yes

    Text #2
    ID : 6
    Format : UTF-8
    Codec ID : S_TEXT/UTF8
    Codec ID/Info : UTF-8 Plain Text
    Language : English
    Default : No
    Forced : No

    Text #3
    ID : 7
    Format : UTF-8
    Codec ID : S_TEXT/UTF8
    Codec ID/Info : UTF-8 Plain Text
    Language : Dutch
    Default : No
    Forced : No

    Text #4
    ID : 8
    Format : UTF-8
    Codec ID : S_TEXT/UTF8
    Codec ID/Info : UTF-8 Plain Text
    Title : SDH
    Language : Dutch
    Default : No
    Forced : No

    Text #5
    ID : 9
    Format : UTF-8
    Codec ID : S_TEXT/UTF8
    Codec ID/Info : UTF-8 Plain Text
    Title : Forced
    Language : Dutch
    Default : No
    Forced : No

    Menu
    00:00:00.000 : en:00:00:00.000
    00:15:20.708 : en:00:15:20.708
    00:32:30.875 : en:00:32:30.875
    00:49:20.875 : en:00:49:20.875
    00:59:50.667 : en:00:59:50.667
    01:19:50.417 : en:01:19:50.417
    01:39:18.792 : en:01:39:18.792
    01:55:04.667 : en:01:55:04.667
    02:10:07.500 : en:02:10:07.500
10.0 из 10
голосов: 1
/10
/10
grab777 15-11-2015, 03:45
Информация
Посетители, находящиеся в группе Гости, не могут оставлять комментарии к данной публикации.