Панель пользователя
Регистрация

Воспользуйтесь социальными сетями для входа на https://freerutor.com

vk odnoklassniki facebook mailru yandex google
Популярное
Счетчик
Голосуй за нас
VIP на сайте
Популярное
Товары интернет магазина
загрузка...

Следствие вели - Моя коварная няня (эфир от 14.11.2015) HDTV 1080i

Следствие вели - Моя коварная няня (эфир от 14.11.2015) HDTV 1080i
Участники торрент обмена
Сидов Пиров Скачали
0 0 22
Характеристика
Размер Файлы
2.37 GB
Релиз группа
Поделиться раздачей
Документальный
Оригинальное наименование: Следствие вели... с Леонидом Каневским
Категория: Документальный, детектив, криминал, расследование
Произведено: Россия / НТВ
Режиссер постановщик: Игорь Ромащенко, Борис Фёдоров
Ведущий: Леонид Каневский
Краткое описание: 1982 год, Москва. Во дворе родного дома исчезает пятилетний мальчик. Есть свидетель, такой же малыш, но он утверждает, что ребенка забрал… людоед. Поиски пропавшего мальчика не приносят успеха. А через несколько дней отчаявшиеся родители получают письмо. Распутывая эту необычную историю, столичные сыщики поначалу не догадываются: в ней черное порой выглядит белым. И наоборот. Те, кто казался невинными жертвами, на самом деле – изощренные негодяи.
  • Видео данные: MPEG-TS, 8475 Кбит/с, 1920x1080
    Аудио данные: MP2, 2 ch, 192 Кбит/с
    Перевод: Оригинал
    Продолжительность: 00:40:06
  • Следствие вели - Моя коварная няня (эфир от 14.11.2015) HDTV 1080i Следствие вели - Моя коварная няня (эфир от 14.11.2015) HDTV 1080i Следствие вели - Моя коварная няня (эфир от 14.11.2015) HDTV 1080i
  • Общее
    Идентификатор : 1 (0x1)
    Полное имя : E:\Кинозал - 1\Sledstvie.veli.(2015.14.11).2015.HDTV.(1080i).MediaClub.ts
    Формат : MPEG-TS
    Размер файла : 2,37 Гбайт
    Продолжительность : 40 м.
    Режим общего битрейта : Переменный
    Общий поток : 8475 Кбит/сек

    Видео
    Идентификатор : 901 (0x385)
    Идентификатор меню : 90 (0x5A)
    Формат : AVC
    Формат/Информация : Advanced Video Codec
    Профиль формата : Main@L4.0
    Параметр CABAC формата : Да
    Параметр ReFrames формата : 2 кадра
    Идентификатор кодека : 27
    Продолжительность : 40 м.
    Битрейт : 7863 Кбит/сек
    Ширина : 1920 пикселей
    Высота : 1080 пикселей
    Соотношение сторон : 16:9
    Частота кадров : 25,000 кадров/сек
    Цветовое пространство : YUV
    Субдискретизация насыщенности : 4:2:0
    Битовая глубина : 8 бит
    Тип развёртки : MBAFF
    Бит/(Пиксели*Кадры) : 0.152
    Размер потока : 2,20 Гбайт (93%)
    Основные цвета : BT.709
    Характеристики трансфера : BT.709
    Коэффициенты матрицы : BT.709

    Аудио
    Идентификатор : 902 (0x386)
    Идентификатор меню : 90 (0x5A)
    Формат : MPEG Audio
    Версия формата : Version 1
    Профиль формата : Layer 2
    Идентификатор кодека : 3
    Продолжительность : 40 м.
    Вид битрейта : Постоянный
    Битрейт : 192 Кбит/сек
    Каналы : 2 канала
    Частота : 48,0 КГц
    Метод сжатия : С потерями
    Задержка видео : -40 мс.
    Размер потока : 55,1 Мбайт (2%)
    Язык : Russian
10.0 из 10
голосов: 1
/10
/10
grab777 14-11-2015, 21:33
Информация
Посетители, находящиеся в группе Гости, не могут оставлять комментарии к данной публикации.