Панель пользователя
Регистрация

Воспользуйтесь социальными сетями для входа на https://freerutor.com

vk odnoklassniki facebook mailru yandex google
Популярное
Счетчик
Голосуй за нас
VIP на сайте
Популярное
Товары интернет магазина
загрузка...

Опрометчивый / HairBrained (2013) HDRip-AVC

Опрометчивый / HairBrained (2013) HDRip-AVC
Участники торрент обмена
Сидов Пиров Скачали
0 0 31
Характеристика
Размер Файлы
1.76 GB
Поделиться раздачей
Фильмы (AVC)
Наименование: Опрометчивый
Оригинальное наименование: HairBrained
Категория: Комедия
Произведено: США / Love Lane Pictures
Режиссер постановщик: Билли Кент
В главных ролях: Алекс Вулф, Брендан Фрейзер, Джулия Гарнер, Майкл Оберхольцер, Грета Ли, Тедди Бергман, Робин де Хесус, Элизабет Хауэр, Хосефина Скальоне, Фред Меламед
Краткое описание: Он гений. В свои 14 лет он уже закончил экстерном школу и пытался поступить в Гарвард, в который, по причине своего малолетства, не был принят. Но был принят в третьесортный колледж — Уитмен. Тут он и встречает другую крайность — первокурсника Лео, которому уже 41 год. Их поселили вместе в общаге, где им предстоит стать друзьями…
  • Видео данные: MPEG-4 AVC, 2280 Кбит/с, 1024x576
    Аудио данные: AC3, 2 ch, 192 Кбит/с
    Перевод: Профессиональный двухголосый [Elrom]
    Продолжительность: 01:33:06
  • Опрометчивый / HairBrained (2013) HDRip-AVC Опрометчивый / HairBrained (2013) HDRip-AVC Опрометчивый / HairBrained (2013) HDRip-AVC
  • Общее
    Уникальный идентификатор : 71168607098078486907962548398508497593 (0x358A933D196E50EE04535EF77D445AB9)
    Полное имя : J:\ТОРРЕНТ\AVC\Oprometchivyj.2013.HDRip.AVC.Maystepanov.mkv
    Формат : Matroska
    Версия формата : Version 4 / Version 2
    Размер файла : 1,76 Гбайт
    Продолжительность : 1 ч. 42 м.
    Общий поток : 2454 Кбит/сек
    Программа кодирования : Lavf55.19.104
    Библиотека кодирования : Lavf55.19.104

    Видео
    Идентификатор : 1
    Формат : AVC
    Формат/Информация : Advanced Video Codec
    Профиль формата : Baseline@L1.3
    Параметр CABAC формата : Нет
    Параметр ReFrames формата : 2 кадра
    Идентификатор кодека : V_MPEG4/ISO/AVC
    Продолжительность : 1 ч. 42 м.
    Битрейт : 2280 Кбит/сек
    Ширина : 1024 пикселя
    Высота : 576 пикселей
    Соотношение сторон : 16:9
    Режим частоты кадров : Постоянный
    Частота кадров : 23,976 кадра/сек
    Цветовое пространство : YUV
    Субдискретизация насыщенности : 4:2:0
    Битовая глубина : 8 бит
    Тип развёртки : Прогрессивная
    Бит/(Пиксели*Кадры) : 0.161
    Размер потока : 1,59 Гбайт (90%)
    Библиотека кодирования : x264 core 140 r2377 1ca7bb9
    Настройки программы : cabac=0 / ref=2 / deblock=1:0:0 / analyse=0x1:0x111 / me=umh / subme=6 / psy=1 / psy_rd=1.00:0.00 / mixed_ref=1 / me_range=16 / chroma_me=1 / trellis=0 / 8x8dct=0 / cqm=0 / deadzone=21,11 / fast_pskip=1 / chroma_qp_offset=-2 / threads=12 / lookahead_threads=2 / sliced_threads=0 / nr=0 / decimate=1 / interlaced=0 / bluray_compat=0 / constrained_intra=0 / bframes=0 / weightp=0 / keyint=250 / keyint_min=23 / scenecut=40 / intra_refresh=0 / rc_lookahead=40 / rc=abr / mbtree=1 / bitrate=2280 / ratetol=1.0 / qcomp=0.60 / qpmin=0 / qpmax=69 / qpstep=4 / ip_ratio=1.40 / aq=1:1.00
    Язык : English
    Default : Да
    Forced : Нет
    DURATION : 01:42:41.947000000
    NUMBER_OF_FRAMES : 147739
    NUMBER_OF_BYTES : 3507034559
    _STATISTICS_WRITING_APP : mkvmerge v8.2.0 ('World of Adventure') 64bit
    _STATISTICS_WRITING_DATE_UTC : 2015-09-05 19:27:39
    _STATISTICS_TAGS : BPS DURATION NUMBER_OF_FRAMES NUMBER_OF_BYTES

    Аудио
    Идентификатор : 2
    Формат : AC-3
    Формат/Информация : Audio Coding 3
    Расширение режима : CM (complete main)
    Параметр Endianness формата : Big
    Идентификатор кодека : A_AC3
    Продолжительность : 1 ч. 42 м.
    Вид битрейта : Постоянный
    Битрейт : 192 Кбит/сек
    Каналы : 2 канала
    Расположение каналов : Front: L R
    Частота : 44,1 КГц
    Битовая глубина : 32 бит
    Метод сжатия : С потерями
    Задержка видео : -89 мс.
    Размер потока : 141 Мбайт (8%)
    Язык : Russian
    Default : Да
    Forced : Да
    DURATION : 01:36:52.576000000
    NUMBER_OF_FRAMES : 181643
    NUMBER_OF_BYTES : 139501824
    _STATISTICS_WRITING_APP : mkvmerge v8.2.0 ('World of Adventure') 64bit
    _STATISTICS_WRITING_DATE_UTC : 2015-09-05 19:27:39
    _STATISTICS_TAGS : BPS DURATION NUMBER_OF_FRAMES NUMBER_OF_BYTES

    Меню
    00:00:00.000 : :00:00:00.000
    00:06:39.495 : :00:07:33.495
    00:14:10.946 : :00:15:04.946
    00:20:50.345 : :00:21:44.345
    00:29:03.838 : :00:29:57.838
    00:37:58.372 : :00:38:52.372
    00:49:00.033 : :00:49:54.033
    00:55:56.949 : :00:56:50.949
    01:03:37.910 : :01:04:31.910
    01:10:07.299 : :01:11:01.299
    01:15:16.608 : :01:16:10.608
    01:29:13.444 : :01:30:07.444
10.0 из 10
голосов: 1
/10
/10
grab777 14-11-2015, 19:39
Информация
Посетители, находящиеся в группе Гости, не могут оставлять комментарии к данной публикации.