Панель пользователя
Регистрация

Воспользуйтесь социальными сетями для входа на https://freerutor.com

vk odnoklassniki facebook mailru yandex google
Популярное
Счетчик
Голосуй за нас
VIP на сайте
Популярное
Товары интернет магазина
загрузка...

Агенты А.Н.К.Л. / The Man from U.N.C.L.E. (2015) HDRip | Есарев

Агенты А.Н.К.Л. / The Man from U.N.C.L.E. (2015) HDRip | Есарев
Участники торрент обмена
Сидов Пиров Скачали
2 0 548
Характеристика
Размер Файлы
1.46 GB
Релиз группа
Поделиться раздачей
Фильмы (HDRip,WEB-DLRip)
Наименование: Агенты А.Н.К.Л.
Оригинальное наименование: The Man from U.N.C.L.E.
Категория: Боевик, комедия, приключения
Произведено: США / Davis Entertainment, Warner Bros. Pictures
Режиссер постановщик: Гай Ричи
В главных ролях: Генри Кавилл, Арми Хаммер, Алисия Викандер, Элизабет Дебики, Хью Грант, Лука Кальвани, Сильвестр Грот, Джаред Харрис, Кристиан Беркель, Миша Кузнецов, Марианна Ди Мартино
Краткое описание: Наполеон Соло — агент ЦРУ, на счету которого огромное количество успешно проведенных операций. Он считается одним из лучших секретных агентов во всем мире, и с ним может сравниться только один человек — самый молодой и перспективный агент КГБ, Илья Курякин. Их противостояние переросло в настоящую войну, в которой никто не собирается уступать. Однако обстоятельства складываются так, что непримиримые враги вынуждены стать напарниками. Это происходит после того как спецслужбы двух стран обнаруживают международную преступную организацию, которой удалось создать ядерную бомбу…
  • Видео данные: XviD, 1402 Кбит/с, 720x304
    Аудио данные: AC3, 6 ch, 384 Кбит/с
    Перевод: Авторский [Д. Есарев]
    Продолжительность: 01:56:29
  • Агенты А.Н.К.Л. / The Man from U.N.C.L.E. (2015) HDRip | Есарев Агенты А.Н.К.Л. / The Man from U.N.C.L.E. (2015) HDRip | Есарев Агенты А.Н.К.Л. / The Man from U.N.C.L.E. (2015) HDRip | Есарев
  • General
    Complete name : D:Загрузки с трекеровThe Man from U.N.C.L.E.HDRip.2015.by.ALGORITM.avi
    Format : AVI
    Format/Info : Audio Video Interleave
    File size : 1.46 GiB
    Duration : 1h 56mn
    Overall bit rate : 1 795 Kbps
    Writing application : VirtualDubMod 1.5.10.2 (build 2542/release)
    Writing library : VirtualDubMod build 2542/release

    Video
    ID : 0
    Format : MPEG-4 Visual
    Format profile : Advanced Simple@L5
    Format settings, BVOP : 1
    Format settings, QPel : No
    Format settings, GMC : No warppoints
    Format settings, Matrix : Custom
    Codec ID : XVID
    Codec ID/Hint : XviD
    Duration : 1h 56mn
    Bit rate : 1 402 Kbps
    Width : 720 pixels
    Height : 304 pixels
    Display aspect ratio : 2.35:1
    Frame rate : 23.976 fps
    Color space : YUV
    Chroma subsampling : 4:2:0
    Bit depth : 8 bits
    Scan type : Progressive
    Compression mode : Lossy
    Bits/(Pixel*Frame) : 0.267
    Stream size : 1.14 GiB (78%)
    Writing library : XviD 73

    Audio
    ID : 1
    Format : AC-3
    Format/Info : Audio Coding 3
    Mode extension : CM (complete main)
    Format settings, Endianness : Big
    Codec ID : 2000
    Duration : 1h 56mn
    Bit rate mode : Constant
    Bit rate : 384 Kbps
    Channel(s) : 6 channels
    Channel positions : Front: L C R, Side: L R, LFE
    Sampling rate : 48.0 KHz
    Compression mode : Lossy
    Delay relative to video : 2s 0ms
    Stream size : 320 MiB (21%)
    Alignment : Split accross interleaves
    Interleave, duration : 42 ms (1.00 video frame)
    Interleave, preload duratio : 500 ms
5.7 из 10
голосов: 3
/10
/10
grab777 14-11-2015, 17:44
Информация
Посетители, находящиеся в группе Гости, не могут оставлять комментарии к данной публикации.