Панель пользователя
Регистрация

Воспользуйтесь социальными сетями для входа на https://freerutor.com

vk odnoklassniki facebook mailru yandex google
Популярное
Счетчик
Голосуй за нас
VIP на сайте
Популярное
Товары интернет магазина
загрузка...

Человек-муравей / Ant-Man (2015) HDRip-AVC | Лицензия

Человек-муравей / Ant-Man (2015) HDRip-AVC | Лицензия
Участники торрент обмена
Сидов Пиров Скачали
3 0 984
Характеристика
Размер Файлы
2.89 GB
Релиз группа
Поделиться раздачей
Фильмы (AVC)
Наименование: Человек-муравей
Оригинальное наименование: Ant-Man
Категория: Фантастика, боевик
Произведено: США, Великобритания, Marvel Studios
Режиссер постановщик: Пейтон Рид
В главных ролях: Пол Радд, Майкл Дуглас, Эванджелин Лилли, Кори Столл, Майкл Пенья, Бобби Каннавейл, Ти-Ай, Давид Дастмалчян, Эбби Райдер Фортсон, Джуди Грир, Энтони Маки, Вуд Харрис, Мартин Донован, Хейли Этвелл, Джон Слэттери, Гаррет Моррис, Нил Гамбургер, Род Халлетт, Джо Крест, Джо Букаро III
Краткое описание: Уже прошло несколько десятков лет с того момента как выдающийся биохимик по имени Хэнк Пим совершил невероятное открытие. Хэнк смог создать специальный костюм, надев который, человек уменьшается в размерах до уровня муравья, но при этом вся мозговая деятельность остается той же, а сила увеличивается, ведь, как известно, муравьи могут поднимать предметы, которые весят больше них в несколько раз. В последствии, воодушевлённый своими открытиями и способностями, которые перед ним открывают эти изобретения, этот человек стал самым настоящим супер-героем, и начал свою собственную борьбу со злом. Но всё в этом мире изменилось: враги стали сильнее, борьба стала ещё более жестокой. Теперь он ищет того, кому смог бы передать свой секрет и оборудование, чтобы новые приемник продолжил это сложное и опасное дело. Испытать этот костюм берется хороший приятель доктора Пима, молодой парень, по имени Скотт Лэнг. У него есть кое-какие проблемы с законом, в его жизни было много трудностей, но у него доброе сердце и такой человек действительно достоин этой супер-силы. Под руководством изобретателя чудо-костюма, талантливого ученого Хэнка Пима, Скотт должен найти в себе силы стать настоящим героем и защитить мир от надвигающейся угрозы. Пим и Лэнг должны спланировать и устроить ограбление века, от которого зависит судьба человечества.
  • Видео данные: MPEG-4 AVC, 2694 Кбит/с, 1024x554
    Аудио данные: Русский (AC3, 6 ch, 384 Кбит/с), английский (AC3, 6 ch, 448 Кбит/с)
    Перевод: Дублированный [iTunes]
    Субтитры: Русские, английские
    Продолжительность: 01:57:07
  • Человек-муравей / Ant-Man (2015) HDRip-AVC | Лицензия Человек-муравей / Ant-Man (2015) HDRip-AVC | Лицензия Человек-муравей / Ant-Man (2015) HDRip-AVC | Лицензия
  • Общее
    Уникальный идентификатор : 238841353293649446724290671203249305704 (0xB3AF2BE29D730B17AC906F998AAC3868)
    Полное имя : D:\Загрузки\Ant.Man.2015.x264.HDRip.(AVC).ExKinoRay.mkv
    Формат : Matroska
    Версия формата : Version 2
    Размер файла : 2,89 Гбайт
    Продолжительность : 1 ч. 57 м.
    Общий поток : 3528 Кбит/сек
    Название фильма : Человек-муравей.2015.Rip by: ollan
    Дата кодирования : UTC 2015-11-19 21:39:15
    Программа кодирования : mkvmerge v5.6.0 ('Kenya Kane') built on May 27 2012 16:44:04
    Библиотека кодирования : libebml v1.2.3 + libmatroska v1.3.0

    Видео
    Идентификатор : 1
    Формат : AVC
    Формат/Информация : Advanced Video Codec
    Профиль формата : High@L4.1
    Параметр CABAC формата : Да
    Параметр ReFrames формата : 10 кадров
    Идентификатор кодека : V_MPEG4/ISO/AVC
    Продолжительность : 1 ч. 57 м.
    Битрейт : 2694 Кбит/сек
    Ширина : 1024 пикселя
    Высота : 554 пикселя
    Соотношение сторон : 1,85:1
    Режим частоты кадров : Постоянный
    Частота кадров : 23,976 кадра/сек
    Цветовое пространство : YUV
    Субдискретизация насыщенности : 4:2:0
    Битовая глубина : 8 бит
    Тип развёртки : Прогрессивная
    Бит/(Пиксели*Кадры) : 0.198
    Размер потока : 2,15 Гбайт (74%)
    Библиотека кодирования : x264 core 125 r2200 999b753
    Настройки программы : cabac=1 / ref=10 / deblock=1:-3:-3 / analyse=0x3:0x133 / me=umh / subme=11 / psy=1 / psy_rd=1.00:0.00 / mixed_ref=1 / me_range=32 / chroma_me=1 / trellis=2 / 8x8dct=1 / cqm=0 / deadzone=21,11 / fast_pskip=0 / chroma_qp_offset=-2 / threads=12 / lookahead_threads=2 / sliced_threads=0 / nr=0 / decimate=0 / interlaced=0 / bluray_compat=0 / constrained_intra=0 / bframes=9 / b_pyramid=2 / b_adapt=2 / b_bias=0 / direct=3 / weightb=1 / open_gop=0 / weightp=2 / keyint=240 / keyint_min=23 / scenecut=40 / intra_refresh=0 / rc=2pass / mbtree=0 / bitrate=2694 / ratetol=1.0 / qcomp=0.60 / qpmin=0 / qpmax=69 / qpstep=4 / cplxblur=20.0 / qblur=0.5 / ip_ratio=1.40 / pb_ratio=1.30 / aq=1:1.00
    Язык : English
    Default : Да
    Forced : Нет

    Аудио #1
    Идентификатор : 2
    Формат : AC-3
    Формат/Информация : Audio Coding 3
    Расширение режима : CM (complete main)
    Параметр Endianness формата : Big
    Идентификатор кодека : A_AC3
    Продолжительность : 1 ч. 57 м.
    Вид битрейта : Постоянный
    Битрейт : 384 Кбит/сек
    Каналы : 6 каналов
    Расположение каналов : Front: L C R, Side: L R, LFE
    Частота : 48,0 КГц
    Битовая глубина : 16 бит
    Метод сжатия : С потерями
    Задержка видео : 789 мс.
    Размер потока : 322 Мбайт (11%)
    Заголовок : Дублированный (
    Язык : Russian
    Default : Да
    Forced : Нет

    Аудио #2
    Идентификатор : 3
    Формат : AC-3
    Формат/Информация : Audio Coding 3
    Расширение режима : CM (complete main)
    Параметр Endianness формата : Big
    Идентификатор кодека : A_AC3
    Продолжительность : 1 ч. 57 м.
    Вид битрейта : Постоянный
    Битрейт : 448 Кбит/сек
    Каналы : 6 каналов
    Расположение каналов : Front: L C R, Side: L R, LFE
    Частота : 48,0 КГц
    Битовая глубина : 16 бит
    Метод сжатия : С потерями
    Размер потока : 375 Мбайт (13%)
    Язык : English
    Default : Нет
    Forced : Нет

    Текст #1
    Идентификатор : 4
    Формат : UTF-8
    Идентификатор кодека : S_TEXT/UTF8
    Идентификатор кодека/Информация : UTF-8 Plain Text
    Заголовок : Forced
    Язык : Russian
    Default : Да
    Forced : Нет

    Текст #2
    Идентификатор : 5
    Формат : UTF-8
    Идентификатор кодека : S_TEXT/UTF8
    Идентификатор кодека/Информация : UTF-8 Plain Text
    Заголовок : Full
    Язык : Russian
    Default : Нет
    Forced : Нет

    Текст #3
    Идентификатор : 6
    Формат : UTF-8
    Идентификатор кодека : S_TEXT/UTF8
    Идентификатор кодека/Информация : UTF-8 Plain Text
    Заголовок : SDH
    Язык : English
    Default : Нет
    Forced : Нет

    Меню
    00:00:00.000 : en:Chapter 01
    00:02:08.837 : en:Chapter 02
    00:08:40.186 : en:Chapter 03
    00:15:24.841 : en:Chapter 04
    00:19:59.740 : en:Chapter 05
    00:27:50.210 : en:Chapter 06
    00:33:07.235 : en:Chapter 07
    00:38:53.957 : en:Chapter 08
    00:44:36.465 : en:Chapter 09
    00:49:22.459 : en:Chapter 10
    00:57:44.252 : en:Chapter 11
    01:00:48.812 : en:Chapter 12
    01:06:31.529 : en:Chapter 13
    01:23:21.288 : en:Chapter 14
    01:34:20.530 : en:Chapter 15
    01:47:34.239 : en:Chapter 16
8.3 из 10
голосов: 11
/10
/10
CUBA 20-11-2015, 00:55

6arbo | 17-11-2015, 11:50 | Статус: Оффлайн

Информация
Посетители, находящиеся в группе Гости, не могут оставлять комментарии к данной публикации.