Панель пользователя
Регистрация

Воспользуйтесь социальными сетями для входа на https://freerutor.com

vk odnoklassniki facebook mailru yandex google
Популярное
Счетчик
Голосуй за нас
VIP на сайте
Популярное
Товары интернет магазина
загрузка...

Обними меня (1-2 серии из 2) (2014) WEB-DL 1080p

Обними меня (1-2 серии из 2) (2014) WEB-DL 1080p
Участники торрент обмена
Сидов Пиров Скачали
0 0 151
Характеристика
Размер Файлы
3.72 GB
Релиз группа
Поделиться раздачей
Русские сериалы
Оригинальное название: Обними меня
Категория: Мелодрама
Произведено: Россия / Фаворит фильм
Режиссер: Максим Демченко
В ролях: Дарья Мороз, Виктор Добронравов, Юлия Кудояр, Алексей Симонов (II), Сергей Маркеев, Алексей Красноцветов, Михаил Сидаш
Краткое описание: Тюрьма всех расставила на свои места, те кто казались Мане друзьями предали и мало того еще стали угрожать новым сроком, тот кто любил забыл ее и создал новую семью, а кто был врагом может окажется тем самым единым и любимым мужчиной для нашей героини. Маня попала в тюрьму в молодости по глупости, и после освобождения пытается вернуться к нормальной жизни, но не все так просто как кажется на первый взгляд.
  • Видео: MPEG-4 AVC, 5000 Кбит/с, 1920x1080
    Аудио: AC3, 2 ch, 192 Кбит/с
    Перевод: Оригинал
    Продолжительность: 2 x ~ 00:55:00
  • Обними меня (1-2 серии из 2) (2014) WEB-DL 1080p Обними меня (1-2 серии из 2) (2014) WEB-DL 1080p Обними меня (1-2 серии из 2) (2014) WEB-DL 1080p
  • General
    Complete name : Obnimi.menya.2014.WEB-DL.(1080p).MediaClub\Obnimi.menya.(02.seriya).2014.WEB-DL.(1080p).MediaClub.mkv
    Format : Matroska
    Format version : Version 2
    File size : 1.96 GiB
    Duration : 56mn 0s
    Overall bit rate : 5 004 Kbps
    Encoded date : UTC 2015-11-11 04:06:15
    Writing application : mkvmerge v5.8.0 ('No Sleep / Pillow') built on Sep 2 2012 15:37:04
    Writing library : libebml v1.2.3 + libmatroska v1.3.0

    Video
    ID : 1
    Format : AVC
    Format/Info : Advanced Video Codec
    Format profile : High@L4.1
    Format settings, CABAC : Yes
    Format settings, ReFrames : 5 frames
    Codec ID : V_MPEG4/ISO/AVC
    Duration : 56mn 0s
    Bit rate : 4 712 Kbps
    Width : 1 920 pixels
    Height : 1 080 pixels
    Display aspect ratio : 16:9
    Frame rate mode : Constant
    Frame rate : 25.000 fps
    Color space : YUV
    Chroma subsampling : 4:2:0
    Bit depth : 8 bits
    Scan type : Progressive
    Bits/(Pixel*Frame) : 0.091
    Stream size : 1.84 GiB (94%)
    Language : Russian
    Default : Yes
    Forced : Yes

    Audio
    ID : 2
    Format : AC-3
    Format/Info : Audio Coding 3
    Mode extension : CM (complete main)
    Format settings, Endianness : Big
    Codec ID : A_AC3
    Duration : 56mn 0s
    Bit rate mode : Constant
    Bit rate : 192 Kbps
    Channel(s) : 2 channels
    Channel positions : Front: L R
    Sampling rate : 48.0 KHz
    Bit depth : 16 bits
    Compression mode : Lossy
    Stream size : 76.9 MiB (4%)
    Language : Russian
    Default : Yes
    Forced : Yes
7.8 из 10
голосов: 4
/10
/10
grab777 11-11-2015, 20:48
Информация
Посетители, находящиеся в группе Гости, не могут оставлять комментарии к данной публикации.