Панель пользователя
Регистрация

Воспользуйтесь социальными сетями для входа на https://freerutor.com

vk odnoklassniki facebook mailru yandex google
Популярное
Счетчик
Голосуй за нас
VIP на сайте
Популярное
Товары интернет магазина
загрузка...

Родина (2015) WEB-DLRip-AVC | Лицензия

Родина (2015) WEB-DLRip-AVC | Лицензия
Участники торрент обмена
Сидов Пиров Скачали
7 0 2158
Характеристика
Размер Файлы
2.38 GB
Релиз группа
Поделиться раздачей
Фильмы (AVC)
Оригинальное название: Родина
Жанр: Драма, триллер
Выпущено: Россия / Актябрь фильм, Кинокомпания CTB
Режиссер: Пётр Буслов
В ролях: Андрей Смоляков, Пётр Фёдоров, Любовь Аксёнова, Павел Личникофф, Екатерина Волкова, Сергей Бадюк, Андрей Мерзликин, Кирилл Кяро, Александр Робак, Максим Лагашкин, Владимир Сычёв, Сейдулла Молдаханов, Евгений Карташов, Джей Тахар, Шив Субраманьян
Краткое описание: Здесь ночи слепят огнями рейвов, дни баюкают шумом волн, песок похож на золото, деньги — просто бумага, живи и не тужи, а если совсем повезет, встретишь Бога. Здесь — это Индия, Гоа, куда люди со всего мира отправляются, чтобы найти или потерять себя. Ева, дочь богатого русского, попадает сюда не по своей воле — отец психанул и высадил ночью из частного самолёта на первой подвернувшейся полосе. Когда отец одумался, девушку уже увлёк лабиринт человеческих судеб. Здесь новосибирский парень Макар жадно ищет просветления — до конца отпуска остался один день. Здесь Алексей и Кристина прощаются с семейным счастьем, а мелкие бесы на байках Димон и Леня испытывают мир на прочность. Здесь Гуру (только не надо его так называть!) Космос дарит препараты, сокращающие путь в другую реальность до одного щелчка. Здесь разные судьбы. Разные люди. Но у всех одна Родина. Не любить которую легко, когда она рядом.
  • Видео: MPEG-4 AVC, 2347 Кбит/с, 1024х428
    Аудио: АС3, 6 ch, 384 Кбит/с
    Перевод: Оригинал
    Продолжительность: 02:04:38
  • Родина (2015) WEB-DLRip-AVC | Лицензия Родина (2015) WEB-DLRip-AVC | Лицензия Родина (2015) WEB-DLRip-AVC | Лицензия
  • РодинаRodina_2015_AVC_WEB-DLRip_[scarabey.org].mkv
    Format : Matroska
    Format version : Version 2
    File size : 2.38 GiB
    Duration : 2h 4mn
    Overall bit rate : 2 733 Kbps
    Encoded date : UTC 2015-11-09 04:02:02
    Writing application : mkvmerge v6.1.0 ('Old Devil') built on Mar 4 2013 09:10:42
    Writing library : libebml v1.3.0 + libmatroska v1.4.0

    Video
    ID : 1
    Format : AVC
    Format/Info : Advanced Video Codec
    Format profile : High@L4.1
    Format settings, CABAC : Yes
    Format settings, ReFrames : 10 frames
    Codec ID : V_MPEG4/ISO/AVC
    Duration : 2h 4mn
    Bit rate : 2 347 Kbps
    Width : 1 024 pixels
    Height : 428 pixels
    Display aspect ratio : 2.35:1
    Original display aspect ratio : 2.35:1
    Frame rate mode : Constant
    Frame rate : 24.000 fps
    Color space : YUV
    Chroma subsampling : 4:2:0
    Bit depth : 8 bits
    Scan type : Progressive
    Bits/(Pixel*Frame) : 0.223
    Stream size : 2.00 GiB (84%)
    Writing library : x264 core 148 r2597 e86f3a1
    Encoding settings : cabac=1 / ref=10 / deblock=1:-3:-2 / analyse=0x3:0x113 / me=umh / subme=10 / psy=1 / psy_rd=1.00:0.00 / mixed_ref=1 / me_range=32 / chroma_me=1 / trellis=2 / 8x8dct=1 / cqm=0 / deadzone=21,11 / fast_pskip=1 / chroma_qp_offset=-2 / threads=12 / lookahead_threads=2 / sliced_threads=0 / nr=0 / decimate=0 / interlaced=0 / bluray_compat=0 / constrained_intra=0 / bframes=8 / b_pyramid=2 / b_adapt=2 / b_bias=0 / direct=3 / weightb=1 / open_gop=0 / weightp=2 / keyint=240 / keyint_min=24 / scenecut=40 / intra_refresh=0 / rc_lookahead=40 / rc=2pass / mbtree=1 / bitrate=2347 / ratetol=1.0 / qcomp=0.60 / qpmin=0 / qpmax=69 / qpstep=4 / cplxblur=20.0 / qblur=0.5 / ip_ratio=1.40 / aq=1:1.00
    Default : Yes
    Forced : No

    Audio
    ID : 2
    Format : AC-3
    Format/Info : Audio Coding 3
    Mode extension : CM (complete main)
    Format settings, Endianness : Big
    Codec ID : A_AC3
    Duration : 2h 4mn
    Bit rate mode : Constant
    Bit rate : 384 Kbps
    Channel(s) : 6 channels
    Channel positions : Front: L C R, Side: L R, LFE
    Sampling rate : 48.0 KHz
    Bit depth : 16 bits
    Compression mode : Lossy
    Stream size : 342 MiB (14%)
    Default : Yes
    Forced : No
7.5 из 10
голосов: 11
/10
/10
grab777 11-11-2015, 00:04
Информация
Посетители, находящиеся в группе Гости, не могут оставлять комментарии к данной публикации.