Панель пользователя
Регистрация

Воспользуйтесь социальными сетями для входа на https://freerutor.com

vk odnoklassniki facebook mailru yandex google
Популярное
Счетчик
Голосуй за нас
VIP на сайте
Популярное
Товары интернет магазина
загрузка...

Шевели ластами 2 / Sammy's avonturen 2 (2012) BDRip 720р | Лицензия

Шевели ластами 2 / Sammy's avonturen 2 (2012) BDRip 720р | Лицензия
Участники торрент обмена
Сидов Пиров Скачали
1 0 129
Характеристика
Размер Файлы
2.18 GB
Поделиться раздачей
Мультфильмы
Название: Шевели ластами 2
Оригинальное название: Sammy's avonturen 2
Жанр: Мультфильм, приключения
Выпущено: Бельгия, США, Франция / Illuminata Pictures, Motion Investment Group, nWave Pictures
Режиссер: Бен Стассен
В ролях: Билли Ангер, Пэт Кэрролл, Карлос МакКаллерс II, Синда Адамс, Дино Андраде, Крис Эндрю Кулла, Изабель Фурман, Уэсли Джонни, Силье Рейномо, Дуглас Райан Рот
Краткое описание: Верные друзья навсегда, черепахи Сэмми и Рей, наслаждаются размеренной жизнью вблизи океана, а также присматривают за только что вылупившимися Рикки и Эллой. Внезапно, браконьер хватает больших черепах, они нужны ему для захватывающего морского шоу в Дубае. Центральная фигура шоу, морской конёк Большой Ди, посвящает новичков в свои планы на грандиозный побег. Но, когда маленькие Рикки и Элла прибывают, чтобы спасти «дедушек», планы черепах и их новых друзей: пучеглазой рыбки Джимбо, осьминога Анабель, омара и большой семьи пингвинов, меняются. После ряда волнующих приключений и побегов, наши герои направляются на юг, чтобы встретиться с Шелли, первой и единственной любовью Сэмми.
  • Видео: MPEG4 AVC, 2912 Кбит/с, 1280x720
    Аудио: Русский (AC3, 6 ch, 448 Кбит/c)
    Перевод: Дублированный [Лицензия]
    Субтитры: Французские, голландские
    Продолжительность: 01:32:50
  • Шевели ластами 2 / Sammy's avonturen 2 (2012) BDRip 720р | Лицензия Шевели ластами 2 / Sammy's avonturen 2 (2012) BDRip 720р | Лицензия Шевели ластами 2 / Sammy's avonturen 2 (2012) BDRip 720р | Лицензия
  • General
    Unique ID : 183178585161008571307437684982539010397 (0x89CEE9881D9003FDA6AF6560AF8EC15D)
    Complete name : E:МУЛЬТЫШЕВЕЛИ ЛАСТАМИШевели.Ластами-2.2012.x264.BDRip.720.DUB.mkv
    Format : Matroska
    Format version : Version 4 / Version 2
    File size : 2.18 GiB
    Duration : 1h 32mn
    Overall bit rate : 3 357 Kbps
    Encoded date : UTC 2015-11-10 17:54:41
    Writing application : mkvmerge v8.3.0 ('Over the Horizon') 64bit
    Writing library : libebml v1.3.1 + libmatroska v1.4.2
    DURATION : 01:32:44.480000000
    NUMBER_OF_FRAMES : 173890
    NUMBER_OF_BYTES : 311610880
    _STATISTICS_WRITING_APP : mkvmerge v8.3.0 ('Over the Horizon') 64bit
    _STATISTICS_WRITING_DATE_UT : 2015-11-10 17:54:41
    _STATISTICS_TAGS : BPS DURATION NUMBER_OF_FRAMES NUMBER_OF_BYTES

    Video
    ID : 1
    Format : AVC
    Format/Info : Advanced Video Codec
    Format profile : High@L4.1
    Format settings, CABAC : Yes
    Format settings, ReFrames : 9 frames
    Codec ID : V_MPEG4/ISO/AVC
    Duration : 1h 32mn
    Bit rate : 2 912 Kbps
    Width : 1 280 pixels
    Height : 720 pixels
    Display aspect ratio : 16:9
    Frame rate mode : Constant
    Frame rate : 23.976 fps
    Color space : YUV
    Chroma subsampling : 4:2:0
    Bit depth : 8 bits
    Scan type : Progressive
    Bits/(Pixel*Frame) : 0.132
    Stream size : 1.84 GiB (85%)
    Writing library : x264 core 146 r2538 121396c
    Encoding settings : cabac=1 / ref=9 / deblock=1:-1:-1 / analyse=0x3:0x113 / me=umh / subme=10 / psy=1 / psy_rd=1.00:0.00 / mixed_ref=1 / me_range=32 / chroma_me=1 / trellis=2 / 8x8dct=1 / cqm=0 / deadzone=21,11 / fast_pskip=0 / chroma_qp_offset=-2 / threads=4 / lookahead_threads=1 / sliced_threads=0 / nr=0 / decimate=1 / interlaced=0 / bluray_compat=0 / constrained_intra=0 / bframes=8 / b_pyramid=2 / b_adapt=2 / b_bias=0 / direct=3 / weightb=1 / open_gop=0 / weightp=2 / keyint=240 / keyint_min=22 / scenecut=40 / intra_refresh=0 / rc_lookahead=40 / rc=2pass / mbtree=0 / bitrate=2912 / ratetol=1.0 / qcomp=0.60 / qpmin=0 / qpmax=69 / qpstep=4 / cplxblur=20.0 / qblur=0.5 / vbv_maxrate=62500 / vbv_bufsize=78125 / nal_hrd=none / filler=0 / ip_ratio=1.40 / pb_ratio=1.30 / aq=1:0.90
    Default : Yes
    Forced : No

    Audio
    ID : 2
    Format : AC-3
    Format/Info : Audio Coding 3
    Mode extension : CM (complete main)
    Format settings, Endianness : Big
    Codec ID : A_AC3
    Duration : 1h 32mn
    Bit rate mode : Constant
    Bit rate : 448 Kbps
    Channel(s) : 6 channels
    Channel positions : Front: L C R, Side: L R, LFE
    Sampling rate : 48.0 KHz
    Compression mode : Lossy
    Stream size : 297 MiB (13%)
    Title : Дубляж
    Language : Russian
    Default : Yes
    Forced : No

    Text #1
    ID : 3
    Format : UTF-8
    Codec ID : S_TEXT/UTF8
    Codec ID/Info : UTF-8 Plain Text
    Title : SRT, Full
    Language : Russian
    Default : No
    Forced : No

    Text #2
    ID : 4
    Format : UTF-8
    Codec ID : S_TEXT/UTF8
    Codec ID/Info : UTF-8 Plain Text
    Title : SRT, Full
    Language : English
    Default : No
    Forced : No

    Menu
    00:00:00.000 : en:1. To The Sea
    00:13:37.483 : en:2. The Aquarium
    00:25:37.327 : en:3. Big D
    00:37:38.006 : en:4. Playing Dead
    00:48:51.887 : en:5. Time To Go
    01:04:15.060 : en:6. Where's Ella?
    01:18:41.717 : en:7. To The Rescue
    01:27:30.787 : en:8. Credits
10.0 из 10
голосов: 4
/10
/10
grab777 10-11-2015, 23:44
Информация
Посетители, находящиеся в группе Гости, не могут оставлять комментарии к данной публикации.