Панель пользователя
Регистрация

Воспользуйтесь социальными сетями для входа на https://freerutor.com

vk odnoklassniki facebook mailru yandex google
Популярное
Счетчик
Голосуй за нас
VIP на сайте
Популярное
Товары интернет магазина
загрузка...

Капитал / Le capital (2012) HDRip

Капитал / Le capital (2012) HDRip
Участники торрент обмена
Сидов Пиров Скачали
1 0 878
Характеристика
Размер Файлы
1.46 GB
Поделиться раздачей
Фильмы (HDRip,WEB-DLRip)
Название: Капитал
Оригинальное название: Le capital
Жанр: Драма
Выпущено: Франция / Canal+ [fr], Planète Rouge, La, K.G. Productions, France 2 Cinéma
Режиссер: Коста-Гаврас
В ролях: Гад Эльмале, Гэбриел Бирн, Наташа Ренье, Селин Саллетт, Лия Кебеде, Ипполит Жирардо, Даниэль Месгиш, Ольга Грумберг, Бернар Ле Кок, Филипп Дюкло
Краткое описание: После того как директор банка «Феникс» падает во время игры в гольф, его место занимает молодой амбициозный менеджер Марк Турнье. Сев в кресло главы крупнейшего французского банка, Турнье начинает доказывать, что он не марионетка, а полноценный президент, пытается лихо управлять финансовыми потоками и старается спасти банк от захвата американскими акционерами…
  • Видео: XviD, 1242 Кбит/с, 720x304
    Аудио: Русский (AC3, 2 ch, 192 Кбит/с), французский (AC3, 6 ch, 384 Кбит/с)
    Перевод: Профессиональный многоголосый [AB Video]
    Продолжительность: 01:53:47
  • Капитал / Le capital (2012) HDRip Капитал / Le capital (2012) HDRip Капитал / Le capital (2012) HDRip
  • Общее
    Полное имя : J:Капитал.avi
    Формат : AVI
    Формат/Информация : Audio Video Interleave
    Размер файла : 1,46 Гбайт
    Продолжительность : 1 ч. 53 м.
    Общий поток : 1832 Кбит/сек
    Название фильма : Капитал / Le capital (2012)
    Программа кодирования : VirtualDubMod 1.5.10.2 (build 2540/release)
    Библиотека кодирования : VirtualDubMod build 2540/release
    Авторское право : miha2154

    Видео
    Идентификатор : 0
    Формат : MPEG-4 Visual
    Профиль формата : Advanced Simple@L5
    Параметр BVOP формата : 1
    Параметр QPel формата : Нет
    Параметр GMC формата : Без точки перехода
    Параметр матрицы формата : Выборочная
    Идентификатор кодека : XVID
    Идентификатор кодека/Подсказка : XviD
    Продолжительность : 1 ч. 53 м.
    Битрейт : 1242 Кбит/сек
    Ширина : 720 пикселей
    Высота : 304 пикселя
    Соотношение сторон : 2,35:1
    Частота кадров : 23,976 кадра/сек
    Цветовое пространство : YUV
    Субдискретизация насыщенности : 4:2:0
    Битовая глубина : 8 бит
    Тип развёртки : Прогрессивная
    Метод сжатия : С потерями
    Бит/(Пиксели*Кадры) : 0.237
    Размер потока : 1011 Мбайт (68%)
    Библиотека кодирования : XviD 65

    Аудио #1
    Идентификатор : 1
    Формат : AC-3
    Формат/Информация : Audio Coding 3
    Расширение режима : CM (complete main)
    Параметр Endianness формата : Big
    Идентификатор кодека : 2000
    Продолжительность : 1 ч. 53 м.
    Вид битрейта : Постоянный
    Битрейт : 192 Кбит/сек
    Каналы : 2 канала
    Расположение каналов : Front: L R
    Частота : 48,0 КГц
    Метод сжатия : С потерями
    Размер потока : 156 Мбайт (10%)
    Выравнивание : Разделение по промежуткам
    Продолжительность промежутка : 42 мс. (1,00 видеокадр)
    Время предзагрузки промежутка : 500 мс.
    Заголовок : Профессиональный (многоголосый закадровый) 1 канал

    Аудио #2
    Идентификатор : 2
    Формат : AC-3
    Формат/Информация : Audio Coding 3
    Расширение режима : CM (complete main)
    Параметр Endianness формата : Big
    Идентификатор кодека : 2000
    Продолжительность : 1 ч. 53 м.
    Вид битрейта : Постоянный
    Битрейт : 384 Кбит/сек
    Каналы : 6 каналов
    Расположение каналов : Front: L C R, Side: L R, LFE
    Частота : 48,0 КГц
    Метод сжатия : С потерями
    Размер потока : 313 Мбайт (21%)
    Выравнивание : Разделение по промежуткам
    Продолжительность промежутка : 42 мс. (1,00 видеокадр)
    Время предзагрузки промежутка : 500 мс.
    Заголовок : Французский
8.0 из 10
голосов: 3
/10
/10
grab777 10-11-2015, 23:21
Информация
Посетители, находящиеся в группе Гости, не могут оставлять комментарии к данной публикации.