Панель пользователя
Регистрация

Воспользуйтесь социальными сетями для входа на https://freerutor.com

vk odnoklassniki facebook mailru yandex google
Популярное
Счетчик
Голосуй за нас
VIP на сайте
Популярное
Товары интернет магазина
загрузка...

Каникулы / Vacation (2015) HDRip | Лицензия

Каникулы / Vacation (2015) HDRip | Лицензия
Участники торрент обмена
Сидов Пиров Скачали
3 0 573
Характеристика
Размер Файлы
2.00 GB
Поделиться раздачей
Фильмы (HDRip,WEB-DLRip)
Название: Каникулы
Оригинальное название: Vacation
Категория: Комедия, приключения
Произведено: США / Warner Bros Pictures, New Line Cinema, Ratpac Entertainment
Режиссер: Джон Фрэнсис Дейли, Джонатан М. Голдштейн
В ролях: Эд Хелмс, Кристина Эпплгейт, Скайлер Джизондо, Стил Стеббинс, Крис Хемсворт, Лесли Манн, Чеви Чейз, Беверли Д’Анджело, Чарли Дэй, Катрин Миссал
Краткое описание: Расти Гризвольд — молодой отец и примерный семьянин, который очень хочет сплотить семью и воссоздать каникулы из своего детства. Вместе с супругой и двумя сыновьями он решает совершить незабываемое путешествие через всю страну, конечной целью которого станет самый лучший тематический парк Америки. Все тщательно спланировав, они отправляются в дорогу, надеясь, что их ждет очень веселое и увлекательное путешествие. В начале пути все происходит как нельзя лучше, но чем дальше они отдаляются от дома, тем больше проблем их ждет впереди. Все пошло совсем не так, как планировал Расти, но он не собирается останавливаться и готов сделать все возможное для того, чтобы добраться до пункта назначения и подарить своей семье лучшие каникулы…
  • Видео: XviD, 2497 Кбит/с, 720x304
    Аудио: AC3, 6 ch, 384 Кбит/с
    Перевод: Дублированный [iTunes]
    Продолжительность: 01:39:02
  • Каникулы / Vacation (2015) HDRip | Лицензия Каникулы / Vacation (2015) HDRip | Лицензия Каникулы / Vacation (2015) HDRip | Лицензия
  • General
    Complete name : C:\Users\Arkadij\Videos\Новая папка (6)\Kanikuly.2015.HDRip.avi
    Format : AVI
    Format/Info : Audio Video Interleave
    Format profile : OpenDML
    File size : 2.00 GiB
    Duration : 1h 39mn
    Overall bit rate : 2 891 Kbps
    Writing application : VirtualDubMod 1.5.10.3 (build 2550/release)
    Writing library : VirtualDubMod build 2550/release

    Video
    ID : 0
    Format : MPEG-4 Visual
    Format profile : Advanced Simple@L5
    Format settings, BVOP : 2
    Format settings, QPel : No
    Format settings, GMC : No warppoints
    Format settings, Matrix : Default (MPEG)
    Muxing mode : Packed bitstream
    Codec ID : XVID
    Codec ID/Hint : XviD
    Duration : 1h 39mn
    Bit rate : 2 497 Kbps
    Width : 720 pixels
    Height : 304 pixels
    Display aspect ratio : 2.40:1
    Frame rate : 23.976 fps
    Color space : YUV
    Chroma subsampling : 4:2:0
    Bit depth : 8 bits
    Scan type : Progressive
    Compression mode : Lossy
    Bits/(Pixel*Frame) : 0.476
    Stream size : 1.73 GiB (86%)
    Writing library : XviD 67

    Audio
    ID : 1
    Format : AC-3
    Format/Info : Audio Coding 3
    Mode extension : CM (complete main)
    Format settings, Endianness : Big
    Codec ID : 2000
    Duration : 1h 39mn
    Bit rate mode : Constant
    Bit rate : 384 Kbps
    Channel(s) : 6 channels
    Channel positions : Front: L C R, Side: L R, LFE
    Sampling rate : 48.0 KHz
    Bit depth : 16 bits
    Compression mode : Lossy
    Stream size : 272 MiB (13%)
    Alignment : Split accross interleaves
    Interleave, duration : 80 ms (1.92 video frames)
    Interleave, preload duratio : 560 ms
9.8 из 10
голосов: 4
/10
/10
grab777 9-11-2015, 23:23
Информация
Посетители, находящиеся в группе Гости, не могут оставлять комментарии к данной публикации.