Панель пользователя
Регистрация

Воспользуйтесь социальными сетями для входа на https://freerutor.com

vk odnoklassniki facebook mailru yandex google
Популярное
Счетчик
Голосуй за нас
VIP на сайте
Популярное
Товары интернет магазина
загрузка...

Итальянец / L'Italien (2010) HDRip

Итальянец / L'Italien (2010) HDRip
Участники торрент обмена
Сидов Пиров Скачали
2 1 564
Характеристика
Размер Файлы
1.46 GB
Поделиться раздачей
Фильмы (HDRip,WEB-DLRip)
Название: Итальянец
Оригинальное название: L'Italien
Жанр: Драма, комедия
Выпущено: Франция / Eskwad, Pathe, Canal+ [fr], Ciné Cinémas
Режиссер: Оливье Барру
В ролях: Кад Мерад, Валери Бенгиги, Ролан Жиро, Филипп Лефевр, Гийом Гальенн, Сид Ахмед Агуми, Фарида Ушани, Сафия Азедин
Краткое описание: Жизнь улыбается Дино Фабрицци — эффектному сорокадвухлетнему итальянцу. Он преуспел и в работе, продавая роскошные «Мазерати» в Ницце, и в личной жизни, где взаимоотношения с преданной Элен должны вскоре увенчаться браком. Но есть маленькая проблема: Дино — вовсе не Дино и совсем не итальянец. Обещание, данное отцу, попавшему в больницу с сердечным приступом, станет для него началом возвращения к себе настоящему. Но можно ли это сделать, не потеряв всё, чего достиг Дино?
  • Видео: XviD, 1440 Кбит/с, 720x384
    Аудио: Русский (AC3, 2 ch, 192 Кбит/с), французский (AC3, 6 ch, 384 Кбит/с)
    Перевод: Профессиональный многоголосый [Кинопоказ]
    Продолжительность: 01:42:38
  • Итальянец / L'Italien (2010) HDRip Итальянец / L'Italien (2010) HDRip Итальянец / L'Italien (2010) HDRip
  • Общее
    Полное имя : J:Итальянец.avi
    Формат : AVI
    Формат/Информация : Audio Video Interleave
    Размер файла : 1,46 Гбайт
    Продолжительность : 1 ч. 42 м.
    Общий поток : 2030 Кбит/сек
    Название фильма : Итальянец / L'Italien (2010)
    Программа кодирования : VirtualDubMod 1.5.10.2 (build 2540/release)
    Библиотека кодирования : VirtualDubMod build 2540/release
    Авторское право : miha2154

    Видео
    Идентификатор : 0
    Формат : MPEG-4 Visual
    Профиль формата : Advanced Simple@L5
    Параметр BVOP формата : 1
    Параметр QPel формата : Нет
    Параметр GMC формата : Без точки перехода
    Параметр матрицы формата : Выборочная
    Идентификатор кодека : XVID
    Идентификатор кодека/Подсказка : XviD
    Продолжительность : 1 ч. 42 м.
    Битрейт : 1440 Кбит/сек
    Ширина : 720 пикселей
    Высота : 384 пикселя
    Соотношение сторон : 1,85:1
    Частота кадров : 24,000 кадра/сек
    Цветовое пространство : YUV
    Субдискретизация насыщенности : 4:2:0
    Битовая глубина : 8 бит
    Тип развёртки : Прогрессивная
    Метод сжатия : С потерями
    Бит/(Пиксели*Кадры) : 0.217
    Размер потока : 1,03 Гбайт (71%)
    Библиотека кодирования : XviD 65

    Аудио #1
    Идентификатор : 1
    Формат : AC-3
    Формат/Информация : Audio Coding 3
    Расширение режима : CM (complete main)
    Параметр Endianness формата : Big
    Идентификатор кодека : 2000
    Продолжительность : 1 ч. 42 м.
    Вид битрейта : Постоянный
    Битрейт : 192 Кбит/сек
    Каналы : 2 канала
    Расположение каналов : Front: L R
    Частота : 48,0 КГц
    Метод сжатия : С потерями
    Размер потока : 141 Мбайт (9%)
    Выравнивание : Разделение по промежуткам
    Продолжительность промежутка : 42 мс. (1,00 видеокадр)
    Время предзагрузки промежутка : 500 мс.
    Заголовок : Профессиональный (многоголосый закадровый) Кинопоказ

    Аудио #2
    Идентификатор : 2
    Формат : AC-3
    Формат/Информация : Audio Coding 3
    Расширение режима : CM (complete main)
    Параметр Endianness формата : Big
    Идентификатор кодека : 2000
    Продолжительность : 1 ч. 42 м.
    Вид битрейта : Постоянный
    Битрейт : 384 Кбит/сек
    Каналы : 6 каналов
    Расположение каналов : Front: L C R, Side: L R, LFE
    Частота : 48,0 КГц
    Метод сжатия : С потерями
    Размер потока : 282 Мбайт (19%)
    Выравнивание : Разделение по промежуткам
    Продолжительность промежутка : 42 мс. (1,00 видеокадр)
    Время предзагрузки промежутка : 500 мс.
    Заголовок : Французский
7.8 из 10
голосов: 4
/10
/10
grab777 9-11-2015, 23:10
Информация
Посетители, находящиеся в группе Гости, не могут оставлять комментарии к данной публикации.