Панель пользователя
Регистрация

Воспользуйтесь социальными сетями для входа на https://freerutor.com

vk odnoklassniki facebook mailru yandex google
Популярное
Счетчик
Голосуй за нас
VIP на сайте
Популярное
Товары интернет магазина
загрузка...

Вредитель / Wrecker (2015) WEB-DL 720p

Вредитель / Wrecker (2015) WEB-DL 720p
Участники торрент обмена
Сидов Пиров Скачали
0 0 432
Характеристика
Размер Файлы
2.66 GB
Релиз группа
Поделиться раздачей
Фильмы (720,1080,Blu-Ray)
Название: Вредитель
Оригинальное название: Wrecker
Жанр: Триллер
Выпущено: Канада / IW Wrecker Productions
Режиссер: Майкл Бафаро
В ролях: Анна Хатчисон, Андреа Уитберн, Дженнифер Кениг, Дон Нодел, Майкл Диксон, Кертис Магвайр, Лори Уотт, Селия Рид
Краткое описание: Лучшие подруги Эмили и Лесли решают отправиться в поездку, чтобы отдохнуть от жизни. По совету навигатора они сворачивают с оживленного шоссе на пустынную дорогу. Вскоре они становятся объектом преследования таинственной грузовика, который заставляет девушек сыграть в опасную игру, превращая их поездку в жуткий кошмар.
  • Видео: MPEG-4 AVC, 3907 Кбит/с, 1280x530
    Аудио: Русский (МР3, 2 ch, 192 Кбит/с), английский (АС3, 6 ch, 384 Кбит/с)
    Перевод: Любительский одноголосый [XixiDok]
    Субтитры: Английские
    Продолжительность: 01:23:15
  • Вредитель / Wrecker (2015) WEB-DL 720p Вредитель / Wrecker (2015) WEB-DL 720p Вредитель / Wrecker (2015) WEB-DL 720p
  • Общее
    Уникальный идентификатор : 200899184625071507761971139045221134965 (0x9723C68A43927304BD6A5453880EF275)
    Полное имя : E:\MMMM\Wrecker.2015.720p.WEB-DL.H264.mkv
    Формат : Matroska
    Версия формата : Version 4 / Version 2
    Размер файла : 2,66 Гбайт
    Продолжительность : 1 ч. 23 м.
    Общий поток : 4574 Кбит/сек
    Дата кодирования : UTC 2015-11-08 16:22:32
    Программа кодирования : mkvmerge v6.9.1 ('Blue Panther') 64bit built on Apr 18 2014 18:23:38
    Библиотека кодирования : libebml v1.3.0 + libmatroska v1.4.1
    Attachements : cover.jpg

    Видео
    Идентификатор : 1
    Формат : AVC
    Формат/Информация : Advanced Video Codec
    Профиль формата : Main@L3.1
    Параметр CABAC формата : Нет
    Параметр ReFrames формата : 2 кадра
    Идентификатор кодека : V_MPEG4/ISO/AVC
    Продолжительность : 1 ч. 23 м.
    Битрейт : 3907 Кбит/сек
    Ширина : 1280 пикселей
    Высота : 530 пикселей
    Соотношение сторон : 2,40:1
    Режим частоты кадров : Постоянный
    Частота кадров : 23,976 кадра/сек
    Цветовое пространство : YUV
    Субдискретизация насыщенности : 4:2:0
    Битовая глубина : 8 бит
    Тип развёртки : Прогрессивная
    Бит/(Пиксели*Кадры) : 0.240
    Размер потока : 2,27 Гбайт (85%)
    Заголовок : Wrecker.2015.720p.WEB-DL.DD5.1.H264-RARBG
    Язык : English
    Default : Да
    Forced : Нет
    Цветовой диапазон : Limited
    Основные цвета : BT.709
    Характеристики трансфера : BT.709
    Коэффициенты матрицы : BT.709

    Аудио #1
    Идентификатор : 2
    Формат : MPEG Audio
    Версия формата : Version 1
    Профиль формата : Layer 3
    Идентификатор кодека : A_MPEG/L3
    Идентификатор кодека/Подсказка : MP3
    Продолжительность : 1 ч. 23 м.
    Вид битрейта : Постоянный
    Битрейт : 192 Кбит/сек
    Каналы : 2 канала
    Частота : 44,1 КГц
    Метод сжатия : С потерями
    Размер потока : 114 Мбайт (4%)
    Заголовок : Xixidoktor
    Язык : Russian
    Default : Да
    Forced : Да

    Аудио #2
    Идентификатор : 3
    Формат : AC-3
    Формат/Информация : Audio Coding 3
    Расширение режима : CM (complete main)
    Параметр Endianness формата : Big
    Идентификатор кодека : A_AC3
    Продолжительность : 1 ч. 23 м.
    Вид битрейта : Постоянный
    Битрейт : 384 Кбит/сек
    Каналы : 6 каналов
    Расположение каналов : Front: L C R, Side: L R, LFE
    Частота : 48,0 КГц
    Метод сжатия : С потерями
    Размер потока : 229 Мбайт (8%)
    Заголовок : original
    Язык : English
    Default : Нет
    Forced : Нет

    Текст
    Идентификатор : 4
    Формат : UTF-8
    Идентификатор кодека : S_TEXT/UTF8
    Идентификатор кодека/Информация : UTF-8 Plain Text
    Язык : English
    Default : Нет
    Forced : Нет

    Меню
    00:00:00.000 : en:Stranded
    00:02:08.000 : en:Ladies in the Desert
    00:09:25.000 : en:Devil's Pass
    00:13:50.000 : en:Pit Stop
    00:18:04.000 : en:“His job or our lives.â€
    00:21:48.000 : en:Glad That's Over With
    00:26:05.000 : en:Diner
    00:35:22.000 : en:Roadblock
    00:41:00.000 : en:“Try to keep up with this...â€
    00:44:37.000 : en:Where's Leslie?
    00:50:06.000 : en:No Reception
    00:56:04.000 : en:To Protect and Serve
    01:02:26.000 : en:Out of Gas
    01:08:49.000 : en:Engine Light is On
    01:13:32.000 : en:Playing Chicken
    01:20:57.000 : en:Credits
10.0 из 10
голосов: 5
/10
/10
grab777 8-11-2015, 20:40

Chakki | 9-11-2015, 17:17 | Статус: Оффлайн

Док ты еще жив сука..)))

rezky | 9-11-2015, 12:08 | Статус: Оффлайн

Сид ,вернись!!!!

Baltazar | 8-11-2015, 21:16 | Статус: Оффлайн

Информация
Посетители, находящиеся в группе Гости, не могут оставлять комментарии к данной публикации.